Главная Вход Регистрация ТОРРЕНТЫ Закладки PicPicture Форум FAQ Казино
Порно Лесбиянки Геи Подростки 18+ Русское порно Домашнее порно Анал Фистинг Порно азиатки BBW, FAT БДСМ Нетрадиционное Bukkake Трансы Минет Оргия Инцест Порно азиатки Порно зрелых +35 Мастурбация Сиськи Black (Ebony) Копро, говно, писающие Порно старых +50 Беременные Карлики Порно мультики Порно с переводом Порно паки Порно пародии Ретро порно Мультики Игры Фото Разное Документальное ххх ZOO С собаками С лошадьми
Голосуем!
Жмем раз в сутки, голосуем,
получаем 500 MB к розданному!

Голосуйте за наш трекер, этим вы поможете его развитию


Привет, гость

Логин:

Пароль:



Регистрация
Восстановление пароля
КОНТАКТЫ
ПРАВООБЛАДАТЕЛЯМ !!!


Реклама

Порно торрент трекер kinorun.com скачать порно бесплатно

Порно торрент трекер KINORUN - бесплатно фильмы для взрослых, русское порно, эротика, русские девочки, русский инцест, порно hd, любительское порно, порно мультики, секс

Уважаемые любители порновидео, вы попали на трекер где все порно фильмы абсолютно бесплатны, и постоянно обновляются. Мы стараемся заливать только качественное, эксклюзивное порно видео, которое можно довольно редко встретить на просторах интернета.
Так же на нашем сайте вы можете найти ctrc, русский инцест, гей, лесби, фистинг , подростки, трансы, домашнее и другие популярные направления секса.
Имеется скрытый раздел с уникальными фильмами только для опытных пользователей, вы легко получите этот статус, заливая раздачи на трекер. Тогда вы получите доступ ко всем раздачам, когда вам это делать в лом, вы можете приобрести VIP статус, который дается на 28 дней, за совершенно символическую сумму, при этом ваш рейтинг растет только в положительную сторону, скачка не учитывается.
Посетите наш порно форум, на котором подробно описаны жанры и биографии порно звезд, описаны многие проблемы, возникающие при закачке. Скачивай видео бесплатно.

Первокласная училка / Giving Teacher the D [Brazzers] / 2013 / SATRip - Big tits

Big titsСкачать бесплатно Первокласная училка / Giving Teacher the D [Brazzers] / 2013 / SATRip, download btas_jasmine_jae_480p_1000.mp4.torrent
Скачать порно видео Первокласная училка / Giving Teacher the D [Brazzers] / 2013 / SATRip
Для вашего IP: (54.197.66.254) лимит на сегодня - 1 торрент. Для скачивания БЕЗ ограничений авторизуйтесь
СтатусПроверен
КартинкиПервокласная училка / Giving Teacher the D [Brazzers] / 2013 / SATRip  
Описание All the guys at school have got the hots for Ms. Jae. But for Ryan, it means so much more. He can't help these daydreams he's having, fantasies in which she flashes him her big tits right there in the classroom. How can he take notes when all he can think about is laying his dirty-talking teacher across her desk and pounding her perfect pussy until she screams for more?

Название: Первокласная училка
Оригинал: Giving Teacher the D
Год: 2013
Жанр: Big Tits, Brunette, Blowjob, Stockings
Режиссер: Brazzers
В ролях: Jasmine Jae


Страна: USA
Продолжительность: 00:33:04
Перевод: Без перевода

Технические данные
Качество: SATRip
Формат: MPG
Видео кодек: MPEG
Видео: MPEG4 Video (H264) 854x480 29.97fps 1000kbps
Аудио кодек: AАC
Звук: AAC 48000Hz stereo 128kbps


pic/skrin.gif
http://picpicture.com/thumb.php?id=F1C8_51B39B38      

Голосуй:

ПОТИСКАЙ ИХ, ОНА ЭТОГО ХОЧЕТ!!!

http://picpicture.com/images/r2xnd6pk604e68ws5zla.gif


ТипBig tits
Жанрыall sex, big ass, big tits, oral, students, .СКОРПИОН

Коментарии к порновидео Первокласная училка / Giving Teacher the D [Brazzers] / 2013 / SATRip
Страницы:  1 
:: Не в сети danbors :: Эксперт :: upload 260.27 GB :: download 2.45 GB :: 106.13 ::
Данные:
Общее
Полное имя                               : tas_jasmine_jae_480p_1000.mp4
Формат                                   : MPEG-4
Профиль формата                          : Base Media
Идентификатор кодека                     : isom
Размер файла                             : 280 Мбайт
Продолжительность                        : 33 м.
Общий поток                              : 1184 Кбит/сек
Программа кодирования                    : Lavf55.1.100

Видео
Идентификатор                            : 1
Формат                                   : AVC
Формат/Информация                        : Advanced Video Codec
Профиль формата                          : High@L3.1
Параметр CABAC формата                   : Да
Параметр ReFrames формата                : 5 кадров
Идентификатор кодека                     : avc1
Идентификатор кодека/Информация          : Advanced Video Coding
Продолжительность                        : 33 м.
Битрейт                                  : 1000 Кбит/сек
Ширина                                   : 854 пикселя
Высота                                   : 480 пикселей
Соотношение сторон                       : 16:9
Режим частоты кадров                     : Постоянный
Частота кадров                           : 29,970 кадров/сек
Цветовое пространство                    : YUV
Субдискретизация насыщенности            : 4:2:0
Битовая глубина                          : 8 бит
Тип развёртки                            : Прогрессивная
Бит/(Пиксели*Кадры)                      : 0.081
Размер потока                            : 235 Мбайт (84%)
Библиотека кодирования                   : x264 core 130 r2274 c832fe9
Настройки программы                      : cabac=1 / ref=5 / deblock=1:0:0 / analyse=0x3:0x113 / me=umh / subme=8 / psy=1 / psy_rd=1.00:0.00 / mixed_ref=1 / me_range=16 / chroma_me=1 / trellis=1 / 8x8dct=1 / cqm=0 / deadzone=21,11 / fast_pskip=1 / chroma_qp_offset=-2 / threads=36 / lookahead_threads=3 / sliced_threads=0 / nr=0 / decimate=1 / interlaced=0 / bluray_compat=0 / constrained_intra=0 / bframes=3 / b_pyramid=2 / b_adapt=2 / b_bias=0 / direct=3 / weightb=1 / open_gop=0 / weightp=2 / keyint=60 / keyint_min=6 / scenecut=40 / intra_refresh=0 / rc_lookahead=50 / rc=abr / mbtree=1 / bitrate=1000 / ratetol=1.0 / qcomp=0.60 / qpmin=0 / qpmax=69 / qpstep=4 / ip_ratio=1.40 / aq=1:1.00
Дата пометки                             : UTC 2013-06-01 10:35:08

Аудио
Идентификатор                            : 2
Формат                                   : AAC
Формат/Информация                        : Advanced Audio Codec
Профиль формата                          : LC
Идентификатор кодека                     : 40
Продолжительность                        : 33 м.
Duration_LastFrame                       : 33 мс.
Вид битрейта                             : Постоянный
Битрейт                                  : 128 Кбит/сек
Каналы                                   : 2 канала
Расположение каналов                     : Front: L R
Частота                                  : 48,0 КГц
Метод сжатия                             : С потерями
Размер потока                            : 30,3 Мбайт (11%)
Дата пометки                             : UTC 2013-06-01 10:35:08

Комментарий добавлен: 2013-06-09 02:08:30 GMT

Всего 1 порновидео на 1 страницах по 10 на каждой странице.ctrc

Страницы:  1 
Радио онлайн

Будь с нами!

Наша кнопка
Порновидео трекер Кинорун.ком -  Kinorun.com! - русский секс, оральный секс, видео русский инцест, подростки, гей, лесбо , трансвеститы, извращения, зрелые красотки, анал - БЕСПЛАТНО!
?HTML код кнопки:>

Счётчики