Главная Вход Регистрация ТОРРЕНТЫ Закладки PicPicture Форум FAQ Казино
Порно Лесбиянки Геи Подростки 18+ Русское порно Домашнее порно Анал Фистинг Порно азиатки BBW, FAT БДСМ Нетрадиционное Bukkake Трансы Минет Оргия Инцест Порно азиатки Порно зрелых +35 Мастурбация Сиськи Black (Ebony) Копро, говно, писающие Порно старых +50 Беременные Карлики Порно мультики Порно с переводом Порно паки Порно пародии Ретро порно Мультики Игры Фото Разное Документальное ххх ZOO С собаками С лошадьми
Голосуем!
Жмем раз в сутки, голосуем,
получаем 500 MB к розданному!

Голосуйте за наш трекер, этим вы поможете его развитию


Привет, гость

Логин:

Пароль:



Регистрация
Восстановление пароля
КОНТАКТЫ
ПРАВООБЛАДАТЕЛЯМ !!!


Реклама

Порно торрент трекер kinorun.com скачать порно бесплатно

Порно торрент трекер KINORUN - бесплатно фильмы для взрослых, русское порно, эротика, русские девочки, русский инцест, порно hd, любительское порно, порно мультики, секс

Уважаемые любители порновидео, вы попали на трекер где все порно фильмы абсолютно бесплатны, и постоянно обновляются. Мы стараемся заливать только качественное, эксклюзивное порно видео, которое можно довольно редко встретить на просторах интернета.
Так же на нашем сайте вы можете найти ctrc, русский инцест, гей, лесби, фистинг , подростки, трансы, домашнее и другие популярные направления секса.
Имеется скрытый раздел с уникальными фильмами только для опытных пользователей, вы легко получите этот статус, заливая раздачи на трекер. Тогда вы получите доступ ко всем раздачам, когда вам это делать в лом, вы можете приобрести VIP статус, который дается на 28 дней, за совершенно символическую сумму, при этом ваш рейтинг растет только в положительную сторону, скачка не учитывается.
Посетите наш порно форум, на котором подробно описаны жанры и биографии порно звезд, описаны многие проблемы, возникающие при закачке. Скачивай видео бесплатно.

Сперма и печенье / Trick in Treat [AmateurAllure.com] / 2013 / HD 720 - Teens 18

Teens 18Скачать бесплатно Сперма и печенье / Trick in Treat [AmateurAllure.com] / 2013 / HD 720, download xxxl.mov.torrent
Скачать порно видео Сперма и печенье / Trick in Treat [AmateurAllure.com] / 2013 / HD 720
Для вашего IP: (54.197.65.227) лимит на сегодня - 1 торрент. Для скачивания БЕЗ ограничений авторизуйтесь
СтатусПроверен
Картинки Сперма и печенье / Trick in Treat [AmateurAllure.com] / 2013 / HD 720  
Описание В общем, дело было так. Сидит мужик на диване, ждёт
чуда. И вот оно пришло. В виде белоснежки без трусов.
Сосёт самозабвенно, даёт рачком, всё как положено чуду.
Пора мужику кончить - достаёт это чудушко печеньку - ну
окей, давай тогда сюда накончаю. Ну набрызгал и ждёт -
что будет. Белоснежка и на самом деле чудо - схрумкала в
прямом эфире эту вкусняшку и счастливая ушла, повиливая
жопой. Хэппи энд, позитив, олл райт массив секас ! )


Название: Сперма и печенье
Оригинал: Trick in Treat
Год: 2013
Жанр: Amateur, Oral Sex, Dogging
Режиссер: AmateurAllure.com
В ролях: Miley


Страна: США
Продолжительность: 00:11:13
Перевод: Без перевода

Технические данные
Качество: HD 720
Формат: MPEG-4
Видео кодек: AVC
Видео: 1280x720, ~4500 Кбит/сек
Аудио кодек: AАC, 2ch
Звук: 241 Кбит/сек


MediaInfo:
Общее
Формат                                   : MPEG-4
Профиль формата                          : QuickTime
Идентификатор кодека                     : qt  
Размер файла                             : 381 Мбайт
Продолжительность                        : 11 м.
Общий поток                              : 4747 Кбит/сек
Дата кодирования                         : UTC 2012-02-13 00:46:44
Дата пометки                             : UTC 2012-02-13 01:26:49
Библиотека кодирования                   : Apple QuickTime
Media/UUID                               : 9C502809-34A7-4B71-8279-320EE9702A4D
Media/History/UUID                       : 1F27B703-0A2A-443E-A994-C978D6410C4E

Видео
Идентификатор                            : 1
Формат                                   : AVC
Формат/Информация                        : Advanced Video Codec
Профиль формата                          : High@L3.1
Параметр CABAC формата                   : Нет
Параметр ReFrames формата                : 2 кадра
Идентификатор кодека                     : avc1
Идентификатор кодека/Информация          : Advanced Video Coding
Продолжительность                        : 11 м.
Битрейт                                  : 4500 Кбит/сек
Ширина                                   : 1280 пикселей
Высота                                   : 720 пикселей
Соотношение сторон                       : 16:9
Режим частоты кадров                     : Постоянный
Частота кадров                           : 29,970 кадров/сек
Цветовое пространство                    : YUV
Субдискретизация насыщенности            : 4:2:0
Битовая глубина                          : 8 бит
Тип развёртки                            : Прогрессивная
Бит/(Пиксели*Кадры)                      : 0.163
Размер потока                            : 361 Мбайт (95%)
Язык                                     : English
Дата кодирования                         : UTC 2012-02-13 01:26:25
Дата пометки                             : UTC 2012-02-13 01:26:49
Основные цвета                           : BT.709
Характеристики трансфера                 : BT.709
Коэффициенты матрицы                     : BT.709

Аудио
Идентификатор                            : 2
Формат                                   : AAC
Формат/Информация                        : Advanced Audio Codec
Профиль формата                          : LC
Идентификатор кодека                     : 40
Продолжительность                        : 11 м.
Продолжительность оригинала              : 11 м.
Вид битрейта                             : Постоянный
Битрейт                                  : 241 Кбит/сек
Номинальный битрейт                      : 256 Кбит/сек
Каналы                                   : 2 канала
Расположение каналов                     : Front: L R
Частота                                  : 44,1 КГц
Метод сжатия                             : С потерями
Размер потока                            : 19,4 Мбайт (5%)
Размер потока оригинала                  : 19,4 Мбайт (5%)
Язык                                     : English
Дата кодирования                         : UTC 2012-02-13 01:26:25
Дата пометки                             : UTC 2012-02-13 01:26:49

Прочее
Идентификатор                            : 3
Type                                     : Time code
Формат                                   : QuickTime TC
Продолжительность                        : 11 м.
TimeCode_FirstFrame                      : 01:00:00:00
TimeCode_Settings                        : Striped
Язык                                     : English
Дата кодирования                         : UTC 2012-02-13 01:26:49
Дата пометки                             : UTC 2012-02-13 01:26:49


pic/skrin.gif
http://picpicture.com/thumb.php?id=1665_51ABA4E4      

Голосуй:

СОРВИ ВИШЕНКУ!!!

http://picpicture.com/images/2tc12c9opvh94vk9kxm0.jpg


ВидимыйНет (мертвый)
ТипTeens  18
Жанрыoral, cumschot, teeny, all sex, .danbros

Коментарии к порновидео Сперма и печенье / Trick in Treat [AmateurAllure.com] / 2013 / HD 720
Страницы:  1 
:: Не в сети habibimpasa :: лизунчИк :: upload 2.38 TB :: download 1.35 TB :: 1.76 ::
:thankyou:  :thankyou:  :thankyou:
Комментарий добавлен: 2013-06-05 06:23:29 GMT

Всего 1 порновидео на 1 страницах по 10 на каждой странице.ctrc

Страницы:  1 
Радио онлайн

Будь с нами!

Наша кнопка
Порновидео трекер Кинорун.ком -  Kinorun.com! - русский секс, оральный секс, видео русский инцест, подростки, гей, лесбо , трансвеститы, извращения, зрелые красотки, анал - БЕСПЛАТНО!
?HTML код кнопки:>

Счётчики