Главная Вход Регистрация ТОРРЕНТЫ Закладки PicPicture Форум FAQ Казино
Порно Лесбиянки Геи Подростки 18+ Русское порно Домашнее порно Анал Фистинг Порно азиатки BBW, FAT БДСМ Нетрадиционное Bukkake Трансы Минет Оргия Инцест Порно азиатки Порно зрелых +35 Мастурбация Сиськи Black (Ebony) Копро, говно, писающие Порно старых +50 Беременные Карлики Порно мультики Порно с переводом Порно паки Порно пародии Ретро порно Мультики Игры Фото Разное Документальное ххх ZOO С собаками С лошадьми
Голосуем!
Жмем раз в сутки, голосуем,
получаем 500 MB к розданному!

Голосуйте за наш трекер, этим вы поможете его развитию


Привет, гость

Логин:

Пароль:



Регистрация
Восстановление пароля
КОНТАКТЫ
ПРАВООБЛАДАТЕЛЯМ !!!


Реклама

Порно торрент трекер kinorun.com скачать порно бесплатно

Порно торрент трекер KINORUN - бесплатно фильмы для взрослых, русское порно, эротика, русские девочки, русский инцест, порно hd, любительское порно, порно мультики, секс

Уважаемые любители порновидео, вы попали на трекер где все порно фильмы абсолютно бесплатны, и постоянно обновляются. Мы стараемся заливать только качественное, эксклюзивное порно видео, которое можно довольно редко встретить на просторах интернета.
Так же на нашем сайте вы можете найти ctrc, русский инцест, гей, лесби, фистинг , подростки, трансы, домашнее и другие популярные направления секса.
Имеется скрытый раздел с уникальными фильмами только для опытных пользователей, вы легко получите этот статус, заливая раздачи на трекер. Тогда вы получите доступ ко всем раздачам, когда вам это делать в лом, вы можете приобрести VIP статус, который дается на 28 дней, за совершенно символическую сумму, при этом ваш рейтинг растет только в положительную сторону, скачка не учитывается.
Посетите наш порно форум, на котором подробно описаны жанры и биографии порно звезд, описаны многие проблемы, возникающие при закачке. Скачивай видео бесплатно.

Удовольствие с моим папой / Having fun with my daddy [FTWDADDY.COM] / 2011 / DVDRip - Incest

IncestСкачать бесплатно Удовольствие с моим папой / Having fun with my daddy [FTWDADDY.COM] / 2011 / DVDRip, download Having dirty fun with my daddy!.avi.torrent
Скачать порно видео Удовольствие с моим папой / Having fun with my daddy [FTWDADDY.COM] / 2011 / DVDRip
Для вашего IP: (54.161.208.7) лимит на сегодня - 1 торрент. Для скачивания БЕЗ ограничений авторизуйтесь
СтатусПроверен
Картинки Удовольствие с моим папой / Having fun with my daddy [FTWDADDY.COM] / 2011 / DVDRip  
Описание Очень молодая девчонка и видимо с отцом занимаются сексом в ванной

Название: Удовольствие с моим папой
Оригинал: Having fun with my daddy
Год: 2011
Жанр: Blowjob, Amateur, HomeVideo, Inzest
Режиссер: FTWDADDY.COM
В ролях: Старый и молодая


Страна: Россия
Продолжительность: 00:53:47

Технические данные
Качество: DVDRip
Формат: AVI
Видео кодек: DivX 5
Видео: 640x480, ~999 Кбит/сек
Аудио кодек: MP3, 2ch
Звук: 96,0 Кбит/сек


MediaInfo:
Format                                   : AVI
Format/Info                              : Audio Video Interleave
File size                                : 159 MiB
Duration                                 : 53mn 47s
Overall bit rate                         : 414 Kbps

Video
ID                                       : 0
Format                                   : MPEG-4 Visual
Format settings, BVOP                    : 1
Format settings, QPel                    : No
Format settings, GMC                     : No warppoints
Format settings, Matrix                  : Default (H.263)
Muxing mode                              : Packed bitstream
Codec ID                                 : DX50
Codec ID/Hint                            : DivX 5
Duration                                 : 20mn 10s
Bit rate                                 : 999 Kbps
Width                                    : 640 pixels
Height                                   : 480 pixels
Display aspect ratio                     : 4:3
Frame rate                               : 25.000 fps
Color space                              : YUV
Chroma subsampling                       : 4:2:0
Bit depth                                : 8 bits
Scan type                                : Progressive
Compression mode                         : Lossy
Bits/(Pixel*Frame)                       : 0.130
Stream size                              : 144 MiB (90%)
Title                                    : AVI-Stream
Writing library                          : DivX 5.2.1 (WaffleDay) (UTC 2004-09-08)

Audio
ID                                       : 1
Format                                   : MPEG Audio
Format version                           : Version 1
Format profile                           : Layer 3
Mode                                     : Joint stereo
Mode extension                           : Intensity Stereo + MS Stereo
Codec ID                                 : 55
Codec ID/Hint                            : MP3
Duration                                 : 53mn 47s
Source duration                          : 20mn 10s
Bit rate mode                            : Constant
Bit rate                                 : 96.0 Kbps
Channel(s)                               : 2 channels
Sampling rate                            : 32.0 KHz
Compression mode                         : Lossy
Stream size                              : 13.9 MiB (9%)
Alignment                                : Aligned on interleaves
Interleave, duration                     : 40 ms (1.00 video frame)


pic/skrin.gif

http://picpicture.com/image.php?id=DB13_51A0A0D6&jpg
    

Голосуй:
ПИВО БУДЕШ!?
http://picpicture.com/image.php?id=9A13_51A0A467&gif


ТипIncest
Жанрыblowjob, cumschot, incest, .danbros

Коментарии к порновидео Удовольствие с моим папой / Having fun with my daddy [FTWDADDY.COM] / 2011 / DVDRip
Страницы:  1 
:: Не в сети habibimpasa :: лизунчИк :: upload 2.38 TB :: download 1.35 TB :: 1.76 ::
:thankyou:  :thankyou:  :thankyou:
Комментарий добавлен: 2013-05-26 06:14:41 GMT

Всего 1 порновидео на 1 страницах по 10 на каждой странице.ctrc

Страницы:  1 
Радио онлайн

Будь с нами!

Наша кнопка
Порновидео трекер Кинорун.ком -  Kinorun.com! - русский секс, оральный секс, видео русский инцест, подростки, гей, лесбо , трансвеститы, извращения, зрелые красотки, анал - БЕСПЛАТНО!
?HTML код кнопки:>

Счётчики