Главная Вход Регистрация ТОРРЕНТЫ Закладки PicPicture Форум FAQ Казино
Порно Лесбиянки Геи Подростки 18+ Русское порно Домашнее порно Анал Фистинг Порно азиатки BBW, FAT БДСМ Нетрадиционное Bukkake Трансы Минет Оргия Инцест Порно азиатки Порно зрелых +35 Мастурбация Сиськи Black (Ebony) Копро, говно, писающие Порно старых +50 Беременные Карлики Порно мультики Порно с переводом Порно паки Порно пародии Ретро порно Мультики Игры Фото Разное Документальное ххх ZOO С собаками С лошадьми
Голосуем!
Жмем раз в сутки, голосуем,
получаем 500 MB к розданному!

Голосуйте за наш трекер, этим вы поможете его развитию


Привет, гость

Логин:

Пароль:



Регистрация
Восстановление пароля
КОНТАКТЫ
ПРАВООБЛАДАТЕЛЯМ !!!


Реклама

Порно торрент трекер kinorun.com скачать порно бесплатно

Порно торрент трекер KINORUN - бесплатно фильмы для взрослых, русское порно, эротика, русские девочки, русский инцест, порно hd, любительское порно, порно мультики, секс

Уважаемые любители порновидео, вы попали на трекер где все порно фильмы абсолютно бесплатны, и постоянно обновляются. Мы стараемся заливать только качественное, эксклюзивное порно видео, которое можно довольно редко встретить на просторах интернета.
Так же на нашем сайте вы можете найти ctrc, русский инцест, гей, лесби, фистинг , подростки, трансы, домашнее и другие популярные направления секса.
Имеется скрытый раздел с уникальными фильмами только для опытных пользователей, вы легко получите этот статус, заливая раздачи на трекер. Тогда вы получите доступ ко всем раздачам, когда вам это делать в лом, вы можете приобрести VIP статус, который дается на 28 дней, за совершенно символическую сумму, при этом ваш рейтинг растет только в положительную сторону, скачка не учитывается.
Посетите наш порно форум, на котором подробно описаны жанры и биографии порно звезд, описаны многие проблемы, возникающие при закачке. Скачивай видео бесплатно.

Муж с женой заебли свою служанку / 2008 / DVDRip - Incest

IncestСкачать бесплатно Муж с женой заебли свою служанку / 2008 / DVDRip, download Mom _and_ dad _fuck_ daughter.avi.torrent
Скачать порно видео Муж с женой заебли свою служанку / 2008 / DVDRip
Для вашего IP: (54.211.191.72) лимит на сегодня - 1 торрент. Для скачивания БЕЗ ограничений авторизуйтесь
СтатусПроверен
Картинки Муж с женой заебли свою служанку / 2008 / DVDRip  
Описание Семейная пара, прогулявшись по улице, вернулась домой и застала там симпатичненькую служаночку, моющую посуду. Традиционно отчитав крошку за нерадивость, супруга пошла в другую комнату а муж начал приставать к симпатяге. Та отнекивалась, говоря, что их может попалить грымза-жена, но дядя был очень настойчив и дав крошке денег, дорвался до её киски. Именно в тот момент, когда муж старательно отлизывал девочке на кухню ввалилась супруга и устроила истерику. На мужика это не произвело впечатления и он, прямо при жене, принялся пихать в рот старательно работающей служанке. Тут уж и супруга не выдержала и принялась тыкать пальцами себе в пилотку. Вскоре, девочке пришлось удовлетворять и эту горластую погань...

Название: Муж с женой заебли свою служанку
Год: 2008
Жанр: All Sex, Oral, MILF, INZEST
В ролях: Папа мама и шалудливая служанка


Страна: Голландия
Продолжительность: 00:20:08
Перевод: Без перевода

Технические данные
Качество: DVDRip
Формат: AVI
Видео кодек: XviD
Видео: 640x480, ~1156 Kbps
Аудио кодек: MP3, 2 ch
Звук: 128 кб/с,


MediaInfo:
General
Complete name                            : Mom _and_ dad _fuck_ daughter.avi
Format                                   : AVI
Format/Info                              : Audio Video Interleave
File size                                : 186 MiB
Duration                                 : 20mn 8s
Overall bit rate                         : 1 294 Kbps
Writing application                      : MediaCoder 0.6
Writing library                          : VirtualDub build 32817/release

Video
ID                                       : 0
Format                                   : MPEG-4 Visual
Format profile                           : Advanced Simple@L5
Format settings, BVOP                    : 2
Format settings, QPel                    : Yes
Format settings, GMC                     : No warppoints
Format settings, Matrix                  : Default (H.263)
Codec ID                                 : XVID
Codec ID/Hint                            : XviD
Duration                                 : 20mn 8s
Bit rate                                 : 1 156 Kbps
Width                                    : 640 pixels
Height                                   : 480 pixels
Display aspect ratio                     : 4:3
Frame rate                               : 25.000 fps
Color space                              : YUV
Chroma subsampling                       : 4:2:0
Bit depth                                : 8 bits
Scan type                                : Progressive
Compression mode                         : Lossy
Bits/(Pixel*Frame)                       : 0.151
Stream size                              : 167 MiB (89%)
Writing library                          : XviD 1.2.0.dev47 (UTC 2006-11-01)

Audio
ID                                       : 1
Format                                   : MPEG Audio
Format version                           : Version 1
Format profile                           : Layer 3
Mode                                     : Joint stereo
Mode extension                           : MS Stereo
Codec ID                                 : 55
Codec ID/Hint                            : MP3
Duration                                 : 20mn 8s
Bit rate mode                            : Constant
Bit rate                                 : 128 Kbps
Channel(s)                               : 2 channels
Sampling rate                            : 44.1 KHz
Compression mode                         : Lossy
Delay relative to video                  : 3ms
Stream size                              : 18.4 MiB (10%)
Alignment                                : Split accross interleaves
Interleave, duration                     : 40 ms (1.00 video frame)
Interleave, preload duration             : 500 ms


pic/skrin.gif
  
http://picpicture.com/image.php?id=6A0A_519CBD17&jpg
    

Голосуй:

http://picpicture.com/images/mkiye879tpziat57bt46.gif


ТипIncest
Жанрыcumschot, incest, group sex, .danbros

Коментарии к порновидео Муж с женой заебли свою служанку / 2008 / DVDRip
Страницы:  1 
:: В сети Скорпион :: Скорпион :: upload 75.51 TB :: download 2.48 GB :: 31,207.07 ::
Я тоже такую заебал бы :lol:  :lol:  :lol:
Комментарий добавлен: 2013-05-22 16:03:04 GMT

:: Не в сети habibimpasa :: лизунчИк :: upload 2.38 TB :: download 1.35 TB :: 1.76 ::
:thankyou:  :thankyou:  :thankyou:
Комментарий добавлен: 2013-05-22 19:56:55 GMT

:: Не в сети aspekt :: Эксперт :: upload 729.28 GB :: download 119.20 GB :: 6.12 ::
:thankyou:  :thankyou:  :thankyou:
Комментарий добавлен: 2013-09-16 20:42:37 GMT

Всего 3 порновидео на 1 страницах по 10 на каждой странице.ctrc

Страницы:  1 
Радио онлайн

Будь с нами!

Наша кнопка
Порновидео трекер Кинорун.ком -  Kinorun.com! - русский секс, оральный секс, видео русский инцест, подростки, гей, лесбо , трансвеститы, извращения, зрелые красотки, анал - БЕСПЛАТНО!
?HTML код кнопки:>

Счётчики