Главная Вход Регистрация ТОРРЕНТЫ Закладки PicPicture Форум FAQ Казино
Порно Лесбиянки Геи Подростки 18+ Русское порно Домашнее порно Анал Фистинг Порно азиатки BBW, FAT БДСМ Нетрадиционное Bukkake Трансы Минет Оргия Инцест Порно азиатки Порно зрелых +35 Мастурбация Сиськи Black (Ebony) Копро, говно, писающие Порно старых +50 Беременные Карлики Порно мультики Порно с переводом Порно паки Порно пародии Ретро порно Мультики Игры Фото Разное Документальное ххх ZOO С собаками С лошадьми
Голосуем!
Жмем раз в сутки, голосуем,
получаем 500 MB к розданному!

Голосуйте за наш трекер, этим вы поможете его развитию


Привет, гость

Логин:

Пароль:



Регистрация
Восстановление пароля
КОНТАКТЫ
ПРАВООБЛАДАТЕЛЯМ !!!


Реклама

Порно торрент трекер kinorun.com скачать порно бесплатно

Порно торрент трекер KINORUN - бесплатно фильмы для взрослых, русское порно, эротика, русские девочки, русский инцест, порно hd, любительское порно, порно мультики, секс

Уважаемые любители порновидео, вы попали на трекер где все порно фильмы абсолютно бесплатны, и постоянно обновляются. Мы стараемся заливать только качественное, эксклюзивное порно видео, которое можно довольно редко встретить на просторах интернета.
Так же на нашем сайте вы можете найти ctrc, русский инцест, гей, лесби, фистинг , подростки, трансы, домашнее и другие популярные направления секса.
Имеется скрытый раздел с уникальными фильмами только для опытных пользователей, вы легко получите этот статус, заливая раздачи на трекер. Тогда вы получите доступ ко всем раздачам, когда вам это делать в лом, вы можете приобрести VIP статус, который дается на 28 дней, за совершенно символическую сумму, при этом ваш рейтинг растет только в положительную сторону, скачка не учитывается.
Посетите наш порно форум, на котором подробно описаны жанры и биографии порно звезд, описаны многие проблемы, возникающие при закачке. Скачивай видео бесплатно.

Pure Mature and Lisa Ann / [PureMature.com] / 2012 / HD 720 - Mature 35

Mature 35Скачать бесплатно Pure Mature and Lisa Ann / [PureMature.com] / 2012 / HD 720, download Lisa Ann_Pure Mature_720.wmv.torrent
Скачать порно видео Pure Mature and Lisa Ann /  [PureMature.com] / 2012 / HD 720
Для вашего IP: (54.211.62.139) лимит на сегодня - 1 торрент. Для скачивания БЕЗ ограничений авторизуйтесь
СтатусПроверен
Картинки Pure Mature and Lisa Ann /  [PureMature.com] / 2012 / HD 720  
Описание Знаменитая брюнеточка Lisa Ann как всегда при деле

Название: Pure Mature and Lisa Ann
Оригинал:
Год: 2012
Жанр: Big Tits, Brunette, MILF, Hardcore
Режиссер: PureMature.com
В ролях: Lisa Ann


Страна: США
Продолжительность: 00:27:15
Перевод: Без перевода

Технические данные
Качество: HD 720
Формат: WMV
Видео кодек: WMV
Видео: 1280x720, ~2500 Kbps
Аудио кодек: WMA2, 2 ch
Звук: 128 кб/с,


MediaInfo:
General
Complete name                            : Lisa Ann_Pure Mature_720.wmv
Format                                   : Windows Media
File size                                : 485 MiB
Duration                                 : 27mn 15s
Overall bit rate mode                    : Constant
Overall bit rate                         : 2 486 Kbps
Maximum Overall bit rate                 : 2 651 Kbps
Encoded date                             : UTC 2012-03-28 22:04:47.591

Video
ID                                       : 2
Format                                   : VC-1
Format profile                           : MP@HL
Codec ID                                 : WMV3
Codec ID/Info                            : Windows Media Video 9
Codec ID/Hint                            : WMV3
Description of the codec                 : Windows Media Video 9 - Professional
Duration                                 : 27mn 15s
Bit rate mode                            : Constant
Bit rate                                 : 2 500 Kbps
Width                                    : 1 280 pixels
Height                                   : 720 pixels
Display aspect ratio                     : 16:9
Frame rate                               : 23.976 fps
Nominal frame rate                       : 29.970 fps
Bit depth                                : 8 bits
Scan type                                : Progressive
Compression mode                         : Lossy
Bits/(Pixel*Frame)                       : 0.113
Stream size                              : 488 MiB

Audio
ID                                       : 1
Format                                   : WMA
Format version                           : Version 2
Codec ID                                 : 161
Codec ID/Info                            : Windows Media Audio
Description of the codec                 : Windows Media Audio 9.2 - 128 kbps, 44 kHz, stereo 2-pass CBR
Duration                                 : 27mn 15s
Bit rate mode                            : Constant
Bit rate                                 : 128 Kbps
Channel(s)                               : 2 channels
Sampling rate                            : 44.1 KHz
Bit depth                                : 16 bits
Stream size                              : 25.0 MiB (5%)


pic/skrin.gif

http://picpicture.com/thumb.php?id=51C6_5199DA3F http://picpicture.com/thumb.php?id=6266_5199DA3F http://picpicture.com/thumb.php?id=5291_5199DA3F http://picpicture.com/thumb.php?id=B188_5199DA3F http://picpicture.com/thumb.php?id=1F6F_5199DA3F http://picpicture.com/thumb.php?id=5008_5199DA3F http://picpicture.com/thumb.php?id=7D03_5199DBFB http://picpicture.com/thumb.php?id=3297_5199DBFB

    

Голосуй:
ПИВО БУДЕШ!?
http://picpicture.com/images/o7301v6m3aw5thvgs6x1.jpg


ТипMature   35
Жанры720 hd, big tits, milf, .danbros

Коментарии к порновидео Pure Mature and Lisa Ann / [PureMature.com] / 2012 / HD 720
Комментариев нет. Желаете добавить? Зарегистрируйтесь на порно торрент трекере.

Радио онлайн

Будь с нами!

Наша кнопка
Порновидео трекер Кинорун.ком -  Kinorun.com! - русский секс, оральный секс, видео русский инцест, подростки, гей, лесбо , трансвеститы, извращения, зрелые красотки, анал - БЕСПЛАТНО!
?HTML код кнопки:>

Счётчики