Главная Вход Регистрация ТОРРЕНТЫ Закладки PicPicture Форум FAQ Казино
Порно Лесбиянки Геи Подростки 18+ Русское порно Домашнее порно Анал Фистинг Порно азиатки BBW, FAT БДСМ Нетрадиционное Bukkake Трансы Минет Оргия Инцест Порно азиатки Порно зрелых +35 Мастурбация Сиськи Black (Ebony) Копро, говно, писающие Порно старых +50 Беременные Карлики Порно мультики Порно с переводом Порно паки Порно пародии Ретро порно Мультики Игры Фото Разное Документальное ххх ZOO С собаками С лошадьми
Голосуем!
Жмем раз в сутки, голосуем,
получаем 500 MB к розданному!

Голосуйте за наш трекер, этим вы поможете его развитию


Привет, гость

Логин:

Пароль:



Регистрация
Восстановление пароля
КОНТАКТЫ
ПРАВООБЛАДАТЕЛЯМ !!!


Реклама

Порно торрент трекер kinorun.com скачать порно бесплатно

Порно торрент трекер KINORUN - бесплатно фильмы для взрослых, русское порно, эротика, русские девочки, русский инцест, порно hd, любительское порно, порно мультики, секс

Уважаемые любители порновидео, вы попали на трекер где все порно фильмы абсолютно бесплатны, и постоянно обновляются. Мы стараемся заливать только качественное, эксклюзивное порно видео, которое можно довольно редко встретить на просторах интернета.
Так же на нашем сайте вы можете найти ctrc, русский инцест, гей, лесби, фистинг , подростки, трансы, домашнее и другие популярные направления секса.
Имеется скрытый раздел с уникальными фильмами только для опытных пользователей, вы легко получите этот статус, заливая раздачи на трекер. Тогда вы получите доступ ко всем раздачам, когда вам это делать в лом, вы можете приобрести VIP статус, который дается на 28 дней, за совершенно символическую сумму, при этом ваш рейтинг растет только в положительную сторону, скачка не учитывается.
Посетите наш порно форум, на котором подробно описаны жанры и биографии порно звезд, описаны многие проблемы, возникающие при закачке. Скачивай видео бесплатно.

Дедулька поимел членом крохотную взрослую внучку / 2012 / SATRip - Incest

IncestСкачать бесплатно Дедулька поимел членом крохотную взрослую внучку / 2012 / SATRip, download xxx.wmv.torrent
Скачать порно видео Дедулька поимел членом крохотную взрослую внучку / 2012 / SATRip
Для вашего IP: (54.161.208.7) лимит на сегодня - 1 торрент. Для скачивания БЕЗ ограничений авторизуйтесь
СтатусПроверен
Картинки Дедулька поимел членом крохотную взрослую внучку / 2012 / SATRip  
Описание Мужчина решил переспать со своей внучкой и сделать это на природе. Он приказал внучке молчать пока он будет учить её половому образу жизни. Стоит заметить что телочке очень понравилось заниматься сексом со зрелым мужчиной.

Название: Дедулька поимел членом крохотную взрослую внучку
Год: 2012
Жанр: Incest
В ролях: Дедушка и внучка


Страна: Европа
Продолжительность: 00:20:43
Перевод: Без перевода

Технические данные
Качество: SATRip
Формат: WMV
Видео кодек: WMV
Видео: 720х404, ~2410 Кбит/сек
Аудио кодек: WMA2
Звук: 128 кб/с, 2 ch


MediaInfo:
General
Complete name                            : xxx.wmv
Format                                   : Windows Media
File size                                : 393 MiB
Duration                                 : 20mn 43s
Overall bit rate                         : 2 651 Kbps
Maximum Overall bit rate                 : 2 628 Kbps
Encoded date                             : UTC 1970-01-01 00:00:00.000
major_brand                              : mp42
minor_version                            : 0
compatible_brands                        : mp42isomavc1
WM/EncodingSettings                      : Lavf54.1.100

Video
ID                                       : 1
Format                                   : WMV2
Codec ID                                 : WMV2
Codec ID/Info                            : Windows Media Video 8
Description of the codec                 : wmv2
Duration                                 : 20mn 43s
Bit rate                                 : 2 410 Kbps
Width                                    : 720 pixels
Height                                   : 404 pixels
Display aspect ratio                     : 16:9
Frame rate                               : 25.000 fps
Bit depth                                : 8 bits
Bits/(Pixel*Frame)                       : 0.331
Stream size                              : 357 MiB (91%)

Audio
ID                                       : 2
Format                                   : WMA
Format version                           : Version 2
Codec ID                                 : 161
Codec ID/Info                            : Windows Media Audio
Description of the codec                 : Windows Media Audio V8
Duration                                 : 20mn 43s
Bit rate                                 : 128 Kbps
Channel(s)                               : 2 channels
Sampling rate                            : 44.1 KHz
Bit depth                                : 16 bits
Stream size                              : 19.0 MiB (5%)




Голосуй:

http://picpicture.com/images/mkiye879tpziat57bt46.gif



pic/skrin.gif

http://picpicture.com/thumb.php?id=D3F1_5197FAD9 http://picpicture.com/thumb.php?id=97E8_5197FAD9 http://picpicture.com/thumb.php?id=A562_5197FAD9 http://picpicture.com/thumb.php?id=EA28_5197FAD9 http://picpicture.com/thumb.php?id=6651_5197FAD9
  

Голосуй:
ПИВО БУДЕШ!?
http://picpicture.com/images/o7301v6m3aw5thvgs6x1.jpg


ТипIncest
Жанрыcumschot, incest, .danbros

Коментарии к порновидео Дедулька поимел членом крохотную взрослую внучку / 2012 / SATRip
Комментариев нет. Желаете добавить? Зарегистрируйтесь на порно торрент трекере.

Радио онлайн

Будь с нами!

Наша кнопка
Порновидео трекер Кинорун.ком -  Kinorun.com! - русский секс, оральный секс, видео русский инцест, подростки, гей, лесбо , трансвеститы, извращения, зрелые красотки, анал - БЕСПЛАТНО!
?HTML код кнопки:>

Счётчики