Главная Вход Регистрация ТОРРЕНТЫ Закладки PicPicture Форум FAQ Казино
Порно Лесбиянки Геи Подростки 18+ Русское порно Домашнее порно Анал Фистинг Порно азиатки BBW, FAT БДСМ Нетрадиционное Bukkake Трансы Минет Оргия Инцест Порно азиатки Порно зрелых +35 Мастурбация Сиськи Black (Ebony) Копро, говно, писающие Порно старых +50 Беременные Карлики Порно мультики Порно с переводом Порно паки Порно пародии Ретро порно Мультики Игры Фото Разное Документальное ххх ZOO С собаками С лошадьми
Голосуем!
Жмем раз в сутки, голосуем,
получаем 500 MB к розданному!

Голосуйте за наш трекер, этим вы поможете его развитию


Привет, гость

Логин:

Пароль:



Регистрация
Восстановление пароля
КОНТАКТЫ
ПРАВООБЛАДАТЕЛЯМ !!!


Реклама

Порно торрент трекер kinorun.com скачать порно бесплатно

Порно торрент трекер KINORUN - бесплатно фильмы для взрослых, русское порно, эротика, русские девочки, русский инцест, порно hd, любительское порно, порно мультики, секс

Уважаемые любители порновидео, вы попали на трекер где все порно фильмы абсолютно бесплатны, и постоянно обновляются. Мы стараемся заливать только качественное, эксклюзивное порно видео, которое можно довольно редко встретить на просторах интернета.
Так же на нашем сайте вы можете найти ctrc, русский инцест, гей, лесби, фистинг , подростки, трансы, домашнее и другие популярные направления секса.
Имеется скрытый раздел с уникальными фильмами только для опытных пользователей, вы легко получите этот статус, заливая раздачи на трекер. Тогда вы получите доступ ко всем раздачам, когда вам это делать в лом, вы можете приобрести VIP статус, который дается на 28 дней, за совершенно символическую сумму, при этом ваш рейтинг растет только в положительную сторону, скачка не учитывается.
Посетите наш порно форум, на котором подробно описаны жанры и биографии порно звезд, описаны многие проблемы, возникающие при закачке. Скачивай видео бесплатно.

Рыжая русская кончалка дает в маньку / Redhead Russian konchalka gives Manka [jizzonteens.com] / 2012 / HD 720 - All sex

All sexСкачать бесплатно Рыжая русская кончалка дает в маньку / Redhead Russian konchalka gives Manka [jizzonteens.com] / 2012 / HD 720, download WG_Caprice_150_hd_017_.mp4.torrent
Скачать порно видео Рыжая русская кончалка дает в маньку / Redhead Russian konchalka gives Manka [jizzonteens.com] / 2012 / HD 720
Для вашего IP: (54.197.142.219) лимит на сегодня - 1 торрент. Для скачивания БЕЗ ограничений авторизуйтесь
СтатусПроверен
Картинки Рыжая русская кончалка дает в маньку / Redhead Russian konchalka gives Manka [jizzonteens.com] / 2012 / HD 720  
Описание
http://picpicture.com/image.php?id=698E_50B205EE&gif

Парень мимо проходил, смотрит - рыженькая лежит и стонет вся, щас прям растает от нежности. Достал пацан значит член и дал девке его пригубить, той понравилось это дело, сняла трусы она и давай принимать в маню и кончать от удовльствия

Название: Рыжая русская кончалка дает в маньку
Оригинал: Redhead Russian konchalka gives Manka
Год: 2012
Жанр: Couples
Режиссер: jizzonteens.com
В ролях: Caprice


Страна: США
Продолжительность: 00:21:06
Перевод: Без перевода

Технические данные
Качество: HD 720
Формат: МР4
Видео кодек: AVC
Видео: 1280x720, 30353кб/с
Аудио кодек: AАC
Звук: 152 кб/с


pic/skrin.gif
http://picpicture.com/thumb.php?id=B92C_51829815      

Голосуй:
ОТБЕРИ ОРЕХ У ХОМЯКА!!!

http://picpicture.com/images/0wg9ncedk1bfx6e5ylmc.gif


ТипAll sex
Жанрыall sex, oral, 720 hd, .СКОРПИОН

Коментарии к порновидео Рыжая русская кончалка дает в маньку / Redhead Russian konchalka gives Manka [jizzonteens.com] / 2012 / HD 720
Страницы:  1 
:: Не в сети danbors :: Эксперт :: upload 260.27 GB :: download 2.45 GB :: 106.13 ::
:thankyou:
MediaInfo
Общее
Полное имя                               : WG_Caprice_150_hd_017_.mp4
Формат                                   : MPEG-4
Профиль формата                          : Base Media
Идентификатор кодека                     : isom
Размер файла                             : 482 Мбайт
Продолжительность                        : 21 м.
Режим общего битрейта                    : Переменный
Общий поток                              : 3193 Кбит/сек
Программа кодирования                    : Lavf52.64.2

Видео
Идентификатор                            : 1
Формат                                   : AVC
Формат/Информация                        : Advanced Video Codec
Профиль формата                          : High@L3.1
Параметр CABAC формата                   : Да
Параметр ReFrames формата                : 2 кадра
Идентификатор кодека                     : avc1
Идентификатор кодека/Информация          : Advanced Video Coding
Продолжительность                        : 21 м.
Битрейт                                  : 3035 Кбит/сек
Ширина                                   : 1280 пикселей
Высота                                   : 720 пикселей
Соотношение сторон                       : 16:9
Режим частоты кадров                     : Постоянный
Частота кадров                           : 29,970 кадров/сек
Цветовое пространство                    : YUV
Субдискретизация насыщенности            : 4:2:0
Битовая глубина                          : 8 бит
Тип развёртки                            : Прогрессивная
Бит/(Пиксели*Кадры)                      : 0.110
Размер потока                            : 458 Мбайт (95%)
Библиотека кодирования                   : x264 core 107
Настройки программы                      : cabac=1 / ref=2 / deblock=1:0:0 / analyse=0x3:0x113 / me=hex / subme=6 / psy=1 / psy_rd=1.00:0.00 / mixed_ref=0 / me_range=16 / chroma_me=1 / trellis=0 / 8x8dct=1 / cqm=0 / deadzone=21,11 / fast_pskip=1 / chroma_qp_offset=-2 / threads=36 / sliced_threads=0 / nr=0 / decimate=1 / interlaced=0 / constrained_intra=0 / bframes=3 / b_pyramid=0 / b_adapt=1 / b_bias=0 / direct=3 / weightb=1 / open_gop=0 / weightp=2 / keyint=250 / keyint_min=25 / scenecut=40 / intra_refresh=0 / rc_lookahead=40 / rc=crf / mbtree=1 / crf=20.0 / qcomp=0.60 / qpmin=10 / qpmax=51 / qpstep=4 / ip_ratio=1.41 / aq=1:1.00

Аудио
Идентификатор                            : 2
Формат                                   : AAC
Формат/Информация                        : Advanced Audio Codec
Профиль формата                          : LC
Идентификатор кодека                     : 40
Продолжительность                        : 21 м.
Вид битрейта                             : Переменный
Битрейт                                  : 152 Кбит/сек
Каналы                                   : 2 канала
Расположение каналов                     : Front: L R
Частота                                  : 44,1 КГц
Метод сжатия                             : С потерями
Задержка видео                           : 33 мс.
Размер потока                            : 22,9 Мбайт (5%)

Комментарий добавлен: 2013-05-03 00:07:53 GMT

:: Не в сети habibimpasa :: лизунчИк :: upload 2.38 TB :: download 1.35 TB :: 1.76 ::
:thankyou:  :thankyou:  :thankyou:
Комментарий добавлен: 2013-05-03 05:51:50 GMT

Всего 2 порновидео на 1 страницах по 10 на каждой странице.ctrc

Страницы:  1 
Радио онлайн

Будь с нами!

Наша кнопка
Порновидео трекер Кинорун.ком -  Kinorun.com! - русский секс, оральный секс, видео русский инцест, подростки, гей, лесбо , трансвеститы, извращения, зрелые красотки, анал - БЕСПЛАТНО!
?HTML код кнопки:>

Счётчики