Главная Вход Регистрация ТОРРЕНТЫ Закладки PicPicture Форум FAQ Казино
Порно Лесбиянки Геи Подростки 18+ Русское порно Домашнее порно Анал Фистинг Порно азиатки BBW, FAT БДСМ Нетрадиционное Bukkake Трансы Минет Оргия Инцест Порно азиатки Порно зрелых +35 Мастурбация Сиськи Black (Ebony) Копро, говно, писающие Порно старых +50 Беременные Карлики Порно мультики Порно с переводом Порно паки Порно пародии Ретро порно Мультики Игры Фото Разное Документальное ххх ZOO С собаками С лошадьми
Голосуем!
Жмем раз в сутки, голосуем,
получаем 500 MB к розданному!

Голосуйте за наш трекер, этим вы поможете его развитию


Привет, гость

Логин:

Пароль:



Регистрация
Восстановление пароля
КОНТАКТЫ
ПРАВООБЛАДАТЕЛЯМ !!!


Реклама

Порно торрент трекер kinorun.com скачать порно бесплатно

Порно торрент трекер KINORUN - бесплатно фильмы для взрослых, русское порно, эротика, русские девочки, русский инцест, порно hd, любительское порно, порно мультики, секс

Уважаемые любители порновидео, вы попали на трекер где все порно фильмы абсолютно бесплатны, и постоянно обновляются. Мы стараемся заливать только качественное, эксклюзивное порно видео, которое можно довольно редко встретить на просторах интернета.
Так же на нашем сайте вы можете найти ctrc, русский инцест, гей, лесби, фистинг , подростки, трансы, домашнее и другие популярные направления секса.
Имеется скрытый раздел с уникальными фильмами только для опытных пользователей, вы легко получите этот статус, заливая раздачи на трекер. Тогда вы получите доступ ко всем раздачам, когда вам это делать в лом, вы можете приобрести VIP статус, который дается на 28 дней, за совершенно символическую сумму, при этом ваш рейтинг растет только в положительную сторону, скачка не учитывается.
Посетите наш порно форум, на котором подробно описаны жанры и биографии порно звезд, описаны многие проблемы, возникающие при закачке. Скачивай видео бесплатно.

Безбашенный дрочер Филипп / 2011 / CAMRip - Porno parody

Porno parodyСкачать бесплатно Безбашенный дрочер Филипп / 2011 / CAMRip, download Philip.avi.torrent
Скачать порно видео Безбашенный дрочер Филипп / 2011 / CAMRip
Для вашего IP: (54.163.65.181) лимит на сегодня - 1 торрент. Для скачивания БЕЗ ограничений авторизуйтесь
СтатусПроверен
Картинки Безбашенный дрочер Филипп / 2011 / CAMRip  
Описание Сюжет фильма таков,парень по имени Филипп,ходит по паркам и пляжам и прилюдно дрочит на девушек и женщин.Вообще такое нужно отсылать в передачу: А Вам Слабо?Диалоги и комментарии в фильме так же отжигают,что от самих девушек что от самого автора.Реакции девушек от увиденного совсем разные,некоторые как бы ничего не замечая встают и уходят,некоторые с визгом убегают,другие же берут мобильник в руки и начинают куда то звонить,а некоторые грозятся вызвать милицию или папу.Но Фил не из простых,на некоторых девушек он даже успевал кончить,так что семя попадало на их тела.

Название: Безбашенный дрочер Филипп
Год: 2011
Жанр: Public Nudity, Handjob
Режиссер: Дрочер Филипп
В ролях: Филипка - казанский хулиган


Страна: Россия
Продолжительность: 01:07:00

Технические данные
Качество: CAMRip
Формат: AVI
Видео кодек: XviD
Видео: 640x480, ~976 Kbps
Аудио кодек: MP3
Звук: 128 кб/с, 2 ch


MediaInfo:
General
Complete name                            : Philip.avi
Format                                   : AVI
Format/Info                              : Audio Video Interleave
File size                                : 541 MiB
Duration                                 : 1h 7mn
Overall bit rate                         : 1 117 Kbps
Writing application                      : Lavf52.61.0

Video
ID                                       : 0
Format                                   : MPEG-4 Visual
Format profile                           : Simple@L3
Format settings, BVOP                    : No
Format settings, QPel                    : No
Format settings, GMC                     : No warppoints
Format settings, Matrix                  : Default (H.263)
Codec ID                                 : XVID
Codec ID/Hint                            : XviD
Duration                                 : 1h 7mn
Bit rate                                 : 976 Kbps
Width                                    : 640 pixels
Height                                   : 480 pixels
Display aspect ratio                     : 4:3
Frame rate                               : 29.970 fps
Color space                              : YUV
Chroma subsampling                       : 4:2:0
Bit depth                                : 8 bits
Scan type                                : Progressive
Compression mode                         : Lossy
Bits/(Pixel*Frame)                       : 0.106
Stream size                              : 473 MiB (87%)
Writing library                          : XviD 1.2.1 (UTC 2008-12-04)

Audio
ID                                       : 1
Format                                   : MPEG Audio
Format version                           : Version 1
Format profile                           : Layer 3
Mode                                     : Joint stereo
Mode extension                           : MS Stereo
Codec ID                                 : 55
Codec ID/Hint                            : MP3
Duration                                 : 1h 7mn
Bit rate mode                            : Constant
Bit rate                                 : 128 Kbps
Channel(s)                               : 2 channels
Sampling rate                            : 44.1 KHz
Compression mode                         : Lossy
Stream size                              : 62.0 MiB (11%)
Alignment                                : Aligned on interleaves
Interleave, duration                     : 26 ms (0.78 video frame)
Writing library                          : LAME3.97


pic/skrin.gif
  
http://picpicture.com/thumb.php?id=DE28_5180C6DA http://picpicture.com/thumb.php?id=AED8_5180C6DA http://picpicture.com/thumb.php?id=747D_5180C6DA http://picpicture.com/thumb.php?id=5E41_5180C6DA http://picpicture.com/thumb.php?id=CDEE_5180C6DA http://picpicture.com/thumb.php?id=F24B_5180C7DA http://picpicture.com/thumb.php?id=17FE_5180C7DA http://picpicture.com/thumb.php?id=C5BB_5180C7DA

    

Голосуй:
ПИВО БУДЕШЬ !?
http://picpicture.com/images/o7301v6m3aw5thvgs6x1.jpg


ВидимыйНет (мертвый)
ТипPorno parody
Жанрыamateur, outdoor, russian, экстремальный секс, юмор, .danbros

Коментарии к порновидео Безбашенный дрочер Филипп / 2011 / CAMRip
Страницы:  1 
[Anonymous]
:tits:
Комментарий добавлен: 2013-11-21 16:55:47 GMT

[Anonymous]
скорости вообще нет(
Комментарий добавлен: 2013-11-21 16:56:46 GMT

Всего 2 порновидео на 1 страницах по 10 на каждой странице.ctrc

Страницы:  1 
Радио онлайн

Будь с нами!

Наша кнопка
Порновидео трекер Кинорун.ком -  Kinorun.com! - русский секс, оральный секс, видео русский инцест, подростки, гей, лесбо , трансвеститы, извращения, зрелые красотки, анал - БЕСПЛАТНО!
?HTML код кнопки:>

Счётчики