Главная Вход Регистрация ТОРРЕНТЫ Закладки PicPicture Форум FAQ Казино
Порно Лесбиянки Геи Подростки 18+ Русское порно Домашнее порно Анал Фистинг Порно азиатки BBW, FAT БДСМ Нетрадиционное Bukkake Трансы Минет Оргия Инцест Порно азиатки Порно зрелых +35 Мастурбация Сиськи Black (Ebony) Копро, говно, писающие Порно старых +50 Беременные Карлики Порно мультики Порно с переводом Порно паки Порно пародии Ретро порно Мультики Игры Фото Разное Документальное ххх ZOO С собаками С лошадьми
Голосуем!
Жмем раз в сутки, голосуем,
получаем 500 MB к розданному!

Голосуйте за наш трекер, этим вы поможете его развитию


Привет, гость

Логин:

Пароль:



Регистрация
Восстановление пароля
КОНТАКТЫ
ПРАВООБЛАДАТЕЛЯМ !!!


Реклама

Порно торрент трекер kinorun.com скачать порно бесплатно

Порно торрент трекер KINORUN - бесплатно фильмы для взрослых, русское порно, эротика, русские девочки, русский инцест, порно hd, любительское порно, порно мультики, секс

Уважаемые любители порновидео, вы попали на трекер где все порно фильмы абсолютно бесплатны, и постоянно обновляются. Мы стараемся заливать только качественное, эксклюзивное порно видео, которое можно довольно редко встретить на просторах интернета.
Так же на нашем сайте вы можете найти ctrc, русский инцест, гей, лесби, фистинг , подростки, трансы, домашнее и другие популярные направления секса.
Имеется скрытый раздел с уникальными фильмами только для опытных пользователей, вы легко получите этот статус, заливая раздачи на трекер. Тогда вы получите доступ ко всем раздачам, когда вам это делать в лом, вы можете приобрести VIP статус, который дается на 28 дней, за совершенно символическую сумму, при этом ваш рейтинг растет только в положительную сторону, скачка не учитывается.
Посетите наш порно форум, на котором подробно описаны жанры и биографии порно звезд, описаны многие проблемы, возникающие при закачке. Скачивай видео бесплатно.

Парень двухчленный / Double Man [Muffia.com] / 2011 / SATRip - Porno parody

Porno parodyСкачать бесплатно Парень двухчленный / Double Man [Muffia.com] / 2011 / SATRip, download Dva_Huja.wmv.torrent
Скачать порно видео Парень двухчленный  / Double Man [Muffia.com] / 2011 / SATRip
Для вашего IP: (54.204.198.71) лимит на сегодня - 1 торрент. Для скачивания БЕЗ ограничений авторизуйтесь
СтатусПроверен
Картинки Парень двухчленный  / Double Man [Muffia.com] / 2011 / SATRip  
Описание Парень по прозвищу:Tommy2Cags шокировал всех присутствующих своим уникальным хуем. У этого парня 2 члена приличного размера. Порно звезда Ellezabet Femm увидев такой сюрприз и сразу охуела, после чего, принялась отсасывать их по очереди.

Название: Парень двухчленный
Оригинал: Double Man
Год: 2011
Жанр: Oral,All Sex,Anal,Double Sex
Режиссер: Muffia.com
В ролях: Tommy 2 Cags and Ellezabet Feem


Страна: США
Продолжительность: 00:29:00
Перевод: Без перевода

Технические данные
Качество: SATRip
Формат: WMV
Видео кодек: WMV
Видео: 720х480, ~1400 Кбит/сек
Аудио кодек: WMA2, 2ch
Звук: 48,0 Кбит/сек


MediaInfo:
Общее
Полное имя                               : Dva_Huja.wmv
Формат                                   : Windows Media
Размер файла                             : 307 Мбайт
Продолжительность                        : 29 м.
Режим общего битрейта                    : Постоянный
Общий поток                              : 1450 Кбит/сек
Максимальный общий битрейт               : 1463 Кбит/сек
Название фильма                          : Muffia.com
Исполнитель                              : Renae
Дата кодирования                         : UTC 2008-09-17 02:47:34.585
Правообладатель                          : www.itsreal.com
Примечание                               : Double Duty
Рейтинг                                  : Adults Only

Видео
Идентификатор                            : 2
Формат                                   : VC-1
Профиль формата                          : MP@ML
Идентификатор кодека                     : WMV3
Идентификатор кодека/Информация          : Windows Media Video 9
Идентификатор кодека/Подсказка           : WMV3
Описание кодека                          : Windows Media Video 9 - Professional
Продолжительность                        : 29 м.
Вид битрейта                             : Постоянный
Битрейт                                  : 1400 Кбит/сек
Ширина                                   : 720 пикселей
Высота                                   : 480 пикселей
Соотношение сторон                       : 3:2
Частота кадров                           : 29,970 кадров/сек
Стандарт вещания                         : NTSC
Битовая глубина                          : 8 бит
Тип развёртки                            : Прогрессивная
Метод сжатия                             : С потерями
Бит/(Пиксели*Кадры)                      : 0.135
Размер потока                            : 297 Мбайт (97%)

Аудио
Идентификатор                            : 1
Формат                                   : WMA
Версия формата                           : Version 2
Идентификатор кодека                     : 161
Идентификатор кодека/Информация          : Windows Media Audio
Описание кодека                          : Windows Media Audio 9.2 -  48 kbps, 44 kHz, stereo 1-pass CBR
Продолжительность                        : 29 м.
Вид битрейта                             : Постоянный
Битрейт                                  : 48,0 Кбит/сек
Каналы                                   : 2 канала
Частота                                  : 44,1 КГц
Битовая глубина                          : 16 бит
Размер потока                            : 10,2 Мбайт (3%)


pic/skrin.gif

http://picpicture.com/thumb.php?id=2CF0_517E4C7C http://picpicture.com/thumb.php?id=8478_517E4C7C http://picpicture.com/thumb.php?id=538D_517E4C7C http://picpicture.com/thumb.php?id=81E8_517E4C7C http://picpicture.com/thumb.php?id=07B7_517E4C7C http://picpicture.com/thumb.php?id=8E8D_517E4D40 http://picpicture.com/thumb.php?id=B059_517E5A0B

    

Голосуй:
ПИВО БУДЕШ!?
http://picpicture.com/images/o7301v6m3aw5thvgs6x1.jpg


ТипPorno parody
Жанрыass to mouth, big cock, double penetration, экстремальный секс, .danbros

Коментарии к порновидео Парень двухчленный / Double Man [Muffia.com] / 2011 / SATRip
Страницы:  1 
:: Не в сети Doberm@n ::Donor Пес шалудивый :: upload 84.57 TB :: download 1.12 GB :: 77,039.86 ::
и в дупло и в  жопу сразу :pjt:

Последний раз редактировалось Doberm@n в 2013-04-29 14:21:04

Комментарий добавлен: 2013-04-29 14:20:42 GMT

:: Не в сети SteIs300 :: Зоофил :: upload 2.79 TB :: download 1.05 TB :: 2.66 ::
пиздешь не на ебешь :pjt:
Комментарий добавлен: 2013-04-29 16:04:14 GMT

:: Не в сети danbors :: Эксперт :: upload 260.27 GB :: download 2.45 GB :: 106.13 ::
SteIs300 писал
пиздешь не на ебешь :pjt:

Ну так в каком разделе этот релиз?  :lol:  :lol:  :lol:
Комментарий добавлен: 2013-04-29 16:40:04 GMT

:: В сети Kross ::Donor Директор :: upload 54.17 TB :: download 2.26 GB :: 24,536.57 ::
ну и как он мочиться наверно в два горшка? :wacko:
Комментарий добавлен: 2013-05-01 18:40:53 GMT

Всего 4 порновидео на 1 страницах по 10 на каждой странице.ctrc

Страницы:  1 
Радио онлайн

Будь с нами!

Наша кнопка
Порновидео трекер Кинорун.ком -  Kinorun.com! - русский секс, оральный секс, видео русский инцест, подростки, гей, лесбо , трансвеститы, извращения, зрелые красотки, анал - БЕСПЛАТНО!
?HTML код кнопки:>

Счётчики