Главная Вход Регистрация ТОРРЕНТЫ Закладки PicPicture Форум FAQ Казино
Порно Лесбиянки Геи Подростки 18+ Русское порно Домашнее порно Анал Фистинг Порно азиатки BBW, FAT БДСМ Нетрадиционное Bukkake Трансы Минет Оргия Инцест Порно азиатки Порно зрелых +35 Мастурбация Сиськи Black (Ebony) Копро, говно, писающие Порно старых +50 Беременные Карлики Порно мультики Порно с переводом Порно паки Порно пародии Ретро порно Мультики Игры Фото Разное Документальное ххх ZOO С собаками С лошадьми
Голосуем!
Жмем раз в сутки, голосуем,
получаем 500 MB к розданному!

Голосуйте за наш трекер, этим вы поможете его развитию


Привет, гость

Логин:

Пароль:



Регистрация
Восстановление пароля
КОНТАКТЫ
ПРАВООБЛАДАТЕЛЯМ !!!


Реклама

Порно торрент трекер kinorun.com скачать порно бесплатно

Порно торрент трекер KINORUN - бесплатно фильмы для взрослых, русское порно, эротика, русские девочки, русский инцест, порно hd, любительское порно, порно мультики, секс

Уважаемые любители порновидео, вы попали на трекер где все порно фильмы абсолютно бесплатны, и постоянно обновляются. Мы стараемся заливать только качественное, эксклюзивное порно видео, которое можно довольно редко встретить на просторах интернета.
Так же на нашем сайте вы можете найти ctrc, русский инцест, гей, лесби, фистинг , подростки, трансы, домашнее и другие популярные направления секса.
Имеется скрытый раздел с уникальными фильмами только для опытных пользователей, вы легко получите этот статус, заливая раздачи на трекер. Тогда вы получите доступ ко всем раздачам, когда вам это делать в лом, вы можете приобрести VIP статус, который дается на 28 дней, за совершенно символическую сумму, при этом ваш рейтинг растет только в положительную сторону, скачка не учитывается.
Посетите наш порно форум, на котором подробно описаны жанры и биографии порно звезд, описаны многие проблемы, возникающие при закачке. Скачивай видео бесплатно.

Телеведущую изнасиловали в прямом эфире / 2011 / DVDRip - Asian

AsianСкачать бесплатно Телеведущую изнасиловали в прямом эфире / 2011 / DVDRip, download Maria_Ozawa_-_Bukkake.avi.torrent
Скачать порно видео Телеведущую изнасиловали в прямом эфире / 2011 / DVDRip
Для вашего IP: (54.166.89.187) лимит на сегодня - 1 торрент. Для скачивания БЕЗ ограничений авторизуйтесь
СтатусПроверен
Картинки Телеведущую изнасиловали в прямом эфире / 2011 / DVDRip  
Описание Мария Озава телеведущая новостей. Но вся проблема в том, что Марии все время мешают больше полусотни японцев которые подходят и кончают на лицо, одежду, рот, волосы и тело Маши. Но японцам и этого мало и один паренек, подходит к дикторше и снимет с неё юбку, рвет колготки и начинает трахать.


Название: Телеведущую изнасиловали в прямом эфире
Год: 2011
Жанр: Blowjob,Gonzo,Group sex
Режиссер:
В ролях: Мария Озава


Страна: Япония
Продолжительность: 00:44:33
Перевод: Без перевода

Технические данные
Качество: DVDRip
Формат: AVI
Видео кодек: XviD
Видео: 640x480, ~1133 Кбит/сек
Аудио кодек: MP3, 2ch
Звук: 104 Кбит/сек


MediaInfo:
Общее
Полное имя                               : Maria_Ozawa_-_Bukkake.avi
Формат                                   : AVI
Формат/Информация                        : Audio Video Interleave
Размер файла                             : 399 Мбайт
Продолжительность                        : 44 м.
Режим общего битрейта                    : Переменный
Общий поток                              : 1251 Кбит/сек
Программа кодирования                    : VirtualDubMod 1.5.10.2 (build 2540/release)
Библиотека кодирования                   : VirtualDubMod build 2540/release

Видео
Идентификатор                            : 0
Формат                                   : MPEG-4 Visual
Профиль формата                          : Advanced Simple@L5
Параметр BVOP формата                    : 1
Параметр QPel формата                    : Нет
Параметр GMC формата                     : Без точки перехода
Параметр матрицы формата                 : Выборочная
Идентификатор кодека                     : XVID
Идентификатор кодека/Подсказка           : XviD
Продолжительность                        : 44 м.
Битрейт                                  : 1133 Кбит/сек
Ширина                                   : 640 пикселей
Высота                                   : 480 пикселей
Соотношение сторон                       : 4:3
Частота кадров                           : 29,970 кадров/сек
Цветовое пространство                    : YUV
Субдискретизация насыщенности            : 4:2:0
Битовая глубина                          : 8 бит
Тип развёртки                            : Прогрессивная
Метод сжатия                             : С потерями
Бит/(Пиксели*Кадры)                      : 0.123
Размер потока                            : 361 Мбайт (91%)
Библиотека кодирования                   : XviD 1.2.1 (UTC 2008-12-04)

Аудио
Идентификатор                            : 1
Формат                                   : MPEG Audio
Версия формата                           : Version 1
Профиль формата                          : Layer 3
Режим                                    : Joint stereo
Расширение режима                        : MS Stereo
Идентификатор кодека                     : 55
Идентификатор кодека/Подсказка           : MP3
Продолжительность                        : 44 м.
Вид битрейта                             : Переменный
Битрейт                                  : 104 Кбит/сек
Каналы                                   : 2 канала
Частота                                  : 48,0 КГц
Метод сжатия                             : С потерями
Размер потока                            : 33,2 Мбайт (8%)
Выравнивание                             : Соединение по промежуткам
Продолжительность промежутка             : 24  мс. (0,72 видеокадр)
Время предзагрузки промежутка            : 479  мс.


pic/skrin.gif

http://picpicture.com/thumb.php?id=1BD1_517950C6 http://picpicture.com/thumb.php?id=5A0D_517950C6 http://picpicture.com/thumb.php?id=6622_517950C6 http://picpicture.com/thumb.php?id=AD7A_517950C6 http://picpicture.com/thumb.php?id=975D_517950C6

    

Голосуй:
ПИВО БУДЕШ!?
http://picpicture.com/images/o7301v6m3aw5thvgs6x1.jpg


ТипAsian
Жанрыcumschot, publik, blowjob, brunette, bukkake, экстремальный секс, .danbros

Коментарии к порновидео Телеведущую изнасиловали в прямом эфире / 2011 / DVDRip
Страницы:  1 
:: Не в сети habibimpasa :: лизунчИк :: upload 2.38 TB :: download 1.35 TB :: 1.76 ::
:thankyou:  :thankyou:  :thankyou:
Комментарий добавлен: 2013-04-25 22:46:19 GMT

:: Не в сети алюся :: Эксперт :: upload 534.18 GB :: download 157.37 GB :: 3.39 ::
:thankyou:
Комментарий добавлен: 2013-04-26 06:25:22 GMT

Всего 2 порновидео на 1 страницах по 10 на каждой странице.ctrc

Страницы:  1 
Радио онлайн

Будь с нами!

Наша кнопка
Порновидео трекер Кинорун.ком -  Kinorun.com! - русский секс, оральный секс, видео русский инцест, подростки, гей, лесбо , трансвеститы, извращения, зрелые красотки, анал - БЕСПЛАТНО!
?HTML код кнопки:>

Счётчики