Главная Вход Регистрация ТОРРЕНТЫ Закладки PicPicture Форум FAQ Казино
Порно Лесбиянки Геи Подростки 18+ Русское порно Домашнее порно Анал Фистинг Порно азиатки BBW, FAT БДСМ Нетрадиционное Bukkake Трансы Минет Оргия Инцест Порно азиатки Порно зрелых +35 Мастурбация Сиськи Black (Ebony) Копро, говно, писающие Порно старых +50 Беременные Карлики Порно мультики Порно с переводом Порно паки Порно пародии Ретро порно Мультики Игры Фото Разное Документальное ххх ZOO С собаками С лошадьми
Голосуем!
Жмем раз в сутки, голосуем,
получаем 500 MB к розданному!

Голосуйте за наш трекер, этим вы поможете его развитию


Привет, гость

Логин:

Пароль:



Регистрация
Восстановление пароля
КОНТАКТЫ
ПРАВООБЛАДАТЕЛЯМ !!!


Реклама

Порно торрент трекер kinorun.com скачать порно бесплатно

Порно торрент трекер KINORUN - бесплатно фильмы для взрослых, русское порно, эротика, русские девочки, русский инцест, порно hd, любительское порно, порно мультики, секс

Уважаемые любители порновидео, вы попали на трекер где все порно фильмы абсолютно бесплатны, и постоянно обновляются. Мы стараемся заливать только качественное, эксклюзивное порно видео, которое можно довольно редко встретить на просторах интернета.
Так же на нашем сайте вы можете найти ctrc, русский инцест, гей, лесби, фистинг , подростки, трансы, домашнее и другие популярные направления секса.
Имеется скрытый раздел с уникальными фильмами только для опытных пользователей, вы легко получите этот статус, заливая раздачи на трекер. Тогда вы получите доступ ко всем раздачам, когда вам это делать в лом, вы можете приобрести VIP статус, который дается на 28 дней, за совершенно символическую сумму, при этом ваш рейтинг растет только в положительную сторону, скачка не учитывается.
Посетите наш порно форум, на котором подробно описаны жанры и биографии порно звезд, описаны многие проблемы, возникающие при закачке. Скачивай видео бесплатно.

Мать учит дочь заниматься сексом [Doghousedigital.com] / 2013 / SATRip - Incest

IncestСкачать бесплатно Мать учит дочь заниматься сексом [Doghousedigital.com] / 2013 / SATRip, download dhd_11136_02_big.mp4.torrent
Скачать порно видео Мать учит дочь заниматься сексом [Doghousedigital.com] / 2013 / SATRip
Для вашего IP: (54.146.141.60) лимит на сегодня - 1 торрент. Для скачивания БЕЗ ограничений авторизуйтесь
СтатусПроверен
Картинки Мать учит дочь заниматься сексом [Doghousedigital.com] / 2013 / SATRip  
Описание Все еще молодая мать решает научить свою доченьку заниматься сексом при ее присутствии, чтобы она могла наблюдать и корректировать свою дочь


Название: Мать учит дочь заниматься сексом
Год: 2013
Жанр: Blowjob, Facial , Incest, Milf
Режиссер: Doghousedigital.com


Страна: Англия
Продолжительность: 00:26:00
Перевод: Без перевода

Технические данные
Качество: SATRip
Формат: MPG
Видео кодек: AVC
Видео: 720х400, ~1200 Кбит/сек
Аудио кодек: AАC, 2ch
Звук: 94,0 Кбит/сек


MediaInfo:
Общее
Полное имя                               : dhd_11136_02_big.mp4
Формат                                   : MPEG-4
Профиль формата                          : Base Media
Идентификатор кодека                     : isom
Размер файла                             : 245 Мбайт
Продолжительность                        : 26 м.
Режим общего битрейта                    : Переменный
Общий поток                              : 1302 Кбит/сек
Программа кодирования                    : Lavf52.93.0

Видео
Идентификатор                            : 1
Формат                                   : AVC
Формат/Информация                        : Advanced Video Codec
Профиль формата                          : High@L3.0
Параметр CABAC формата                   : Да
Параметр ReFrames формата                : 4 кадра
Идентификатор кодека                     : avc1
Идентификатор кодека/Информация          : Advanced Video Coding
Продолжительность                        : 26 м.
Битрейт                                  : 1200 Кбит/сек
Ширина                                   : 720 пикселей
Высота                                   : 400 пикселей
Соотношение сторон                       : 16:9
Режим частоты кадров                     : Постоянный
Частота кадров                           : 29,970 кадров/сек
Цветовое пространство                    : YUV
Субдискретизация насыщенности            : 4:2:0
Битовая глубина                          : 8 бит
Тип развёртки                            : Прогрессивная
Бит/(Пиксели*Кадры)                      : 0.139
Размер потока                            : 226 Мбайт (92%)
Библиотека кодирования                   : x264 core 107
Настройки программы                      : cabac=1 / ref=3 / deblock=1:0:0 / analyse=0x3:0x113 / me=umh / subme=6 / psy=1 / psy_rd=1.00:0.00 / mixed_ref=1 / me_range=16 / chroma_me=1 / trellis=0 / 8x8dct=1 / cqm=0 / deadzone=21,11 / fast_pskip=1 / chroma_qp_offset=-2 / threads=1 / sliced_threads=0 / nr=0 / decimate=1 / interlaced=0 / constrained_intra=0 / bframes=2 / b_pyramid=2 / b_adapt=2 / b_bias=0 / direct=2 / weightb=1 / open_gop=0 / weightp=0 / keyint=30 / keyint_min=16 / scenecut=0 / intra_refresh=0 / rc_lookahead=30 / rc=abr / mbtree=1 / bitrate=1200 / ratetol=1.0 / qcomp=0.60 / qpmin=1 / qpmax=31 / qpstep=4 / ip_ratio=1.41 / aq=1:1.00

Аудио
Идентификатор                            : 2
Формат                                   : AAC
Формат/Информация                        : Advanced Audio Codec
Профиль формата                          : LC
Идентификатор кодека                     : 40
Продолжительность                        : 26 м.
Вид битрейта                             : Переменный
Битрейт                                  : 94,0 Кбит/сек
Каналы                                   : 2 канала
Расположение каналов                     : Front: L R
Частота                                  : 44,1 КГц
Метод сжатия                             : С потерями
Задержка видео                           : 67 мс.
Размер потока                            : 17,7 Мбайт (7%)

pic/skrin.gif

http://picpicture.com/thumb.php?id=D8CC_5178E0F3 http://picpicture.com/thumb.php?id=1E17_5178E0F3 http://picpicture.com/thumb.php?id=2727_5178E0F3 http://picpicture.com/thumb.php?id=15CA_5178E0F3 http://picpicture.com/thumb.php?id=B5CD_5178E0F3
    

Голосуй:

ПОЙМАЙ МЫШОНКА !!!

http://picpicture.com/images/zrw7gmj0ww7lhatd8dm.gif


ТипIncest
Жанрыgroup sex, cumschot, old, incest, .danbros

Коментарии к порновидео Мать учит дочь заниматься сексом [Doghousedigital.com] / 2013 / SATRip
Страницы:  1 
:: Не в сети habibimpasa :: лизунчИк :: upload 2.38 TB :: download 1.35 TB :: 1.76 ::
:thankyou:  :thankyou:  :thankyou:
Комментарий добавлен: 2013-04-25 22:44:54 GMT

Всего 1 порновидео на 1 страницах по 10 на каждой странице.ctrc

Страницы:  1 
Радио онлайн

Будь с нами!

Наша кнопка
Порновидео трекер Кинорун.ком -  Kinorun.com! - русский секс, оральный секс, видео русский инцест, подростки, гей, лесбо , трансвеститы, извращения, зрелые красотки, анал - БЕСПЛАТНО!
?HTML код кнопки:>

Счётчики