Главная Вход Регистрация ТОРРЕНТЫ Закладки PicPicture Форум FAQ Казино
Порно Лесбиянки Геи Подростки 18+ Русское порно Домашнее порно Анал Фистинг Порно азиатки BBW, FAT БДСМ Нетрадиционное Bukkake Трансы Минет Оргия Инцест Порно азиатки Порно зрелых +35 Мастурбация Сиськи Black (Ebony) Копро, говно, писающие Порно старых +50 Беременные Карлики Порно мультики Порно с переводом Порно паки Порно пародии Ретро порно Мультики Игры Фото Разное Документальное ххх ZOO С собаками С лошадьми
Голосуем!
Жмем раз в сутки, голосуем,
получаем 500 MB к розданному!

Голосуйте за наш трекер, этим вы поможете его развитию


Привет, гость

Логин:

Пароль:



Регистрация
Восстановление пароля
КОНТАКТЫ
ПРАВООБЛАДАТЕЛЯМ !!!


Реклама

Порно торрент трекер kinorun.com скачать порно бесплатно

Порно торрент трекер KINORUN - бесплатно фильмы для взрослых, русское порно, эротика, русские девочки, русский инцест, порно hd, любительское порно, порно мультики, секс

Уважаемые любители порновидео, вы попали на трекер где все порно фильмы абсолютно бесплатны, и постоянно обновляются. Мы стараемся заливать только качественное, эксклюзивное порно видео, которое можно довольно редко встретить на просторах интернета.
Так же на нашем сайте вы можете найти ctrc, русский инцест, гей, лесби, фистинг , подростки, трансы, домашнее и другие популярные направления секса.
Имеется скрытый раздел с уникальными фильмами только для опытных пользователей, вы легко получите этот статус, заливая раздачи на трекер. Тогда вы получите доступ ко всем раздачам, когда вам это делать в лом, вы можете приобрести VIP статус, который дается на 28 дней, за совершенно символическую сумму, при этом ваш рейтинг растет только в положительную сторону, скачка не учитывается.
Посетите наш порно форум, на котором подробно описаны жанры и биографии порно звезд, описаны многие проблемы, возникающие при закачке. Скачивай видео бесплатно.

CZECH MEGA SWINGERS 17 - PART 2 / Чешские свингеры 17 - часть 2 [CzechMegaSwingers.com] / 2013 / HD 720 - Orgy, group sex

Orgy, group sexСкачать бесплатно CZECH MEGA SWINGERS 17 - PART 2 / Чешские свингеры 17 - часть 2 [CzechMegaSwingers.com] / 2013 / HD 720, download Czechav - CzechMegaSwingers 17 - PART 2 [720p].wmv.torrent
Скачать порно видео CZECH MEGA SWINGERS 17 - PART 2 / Чешские свингеры 17 - часть 2 [CzechMegaSwingers.com] / 2013 / HD 720
Для вашего IP: (54.161.216.242) лимит на сегодня - 1 торрент. Для скачивания БЕЗ ограничений авторизуйтесь
СтатусПроверен
Картинки CZECH MEGA SWINGERS 17 - PART 2 / Чешские свингеры 17 - часть 2 [CzechMegaSwingers.com] / 2013 / HD 720  
Описание В следующей части нашей элиты проекта приближается на высокой скорости. Вот крупнейшей массовой оргии во вселенной, ЧЕШСКАЯ МЕГА СВИНГЕРСКИЙ. Наш дом, если весь пар разного возраста со всех уголков Чехии. Готовьтесь к 18-летней красавицы, горячие зрелые мамаши с молодыми любовниками, группа одиноко бисексуальных девушек и несколько других сюрпризов. Это будет ЖАРКИЙ путь с главной звезды, едва юридических красоты Леа. Она выглядит как супер-модель на обложке престижного журнала мод. Что это богиня красоты показать нам? Вы найдете в ближайшее время, и поверьте мне, это будет ДИКАЯ!!! Пристегните ремни, пожалуйста. Эта ночь будет долгой и полной свободный секс. Здесь приходит на неограниченное групповой секс, который вы можете увидеть в одном только месте, ЗДЕСЬ!!!! (Promt)  

Название: CZECH MEGA SWINGERS 17 - PART 2
Оригинал: Чешские свингеры 17 - часть 2
Год: 2013
Жанр: Blowjob,Gonzo,Group sex
Режиссер: CzechMegaSwingers.com
В ролях: Свингеры


Страна: Чехия
Продолжительность: 00:30:00
Перевод: Без перевода

Технические данные
Качество: HD 720
Формат: WMV
Видео кодек: WMV
Видео: 1280x720, ~3202 Кбит/сек
Аудио кодек: WMA2
Звук: 128 Кбит/сек, 2ch




MediaInfo:
Общее
Полное имя                               : Czechav - CzechMegaSwingers 17 - PART 2 [720p].wmv
Формат                                   : Windows Media
Размер файла                             : 749 Мбайт
Продолжительность                        : 30 м.
Общий поток                              : 3476 Кбит/сек
Максимальный общий битрейт               : 3128 Кбит/сек
Дата кодирования                         : UTC 1970-01-01 00:00:00.000
WM/EncodingSettings                      : Lavf54.3.100

Видео
Идентификатор                            : 1
Формат                                   : WMV2
Идентификатор кодека                     : WMV2
Идентификатор кодека/Информация          : Windows Media Video 8
Описание кодека                          : wmv2
Продолжительность                        : 30 м.
Битрейт                                  : 3202 Кбит/сек
Ширина                                   : 1280 пикселей
Высота                                   : 720 пикселей
Соотношение сторон                       : 16:9
Частота кадров                           : 25,000 кадров/сек
Битовая глубина                          : 8 бит
Бит/(Пиксели*Кадры)                      : 0.139
Размер потока                            : 690 Мбайт (92%)

Аудио
Идентификатор                            : 2
Формат                                   : WMA
Версия формата                           : Version 2
Идентификатор кодека                     : 161
Идентификатор кодека/Информация          : Windows Media Audio
Описание кодека                          : Windows Media Audio V8
Продолжительность                        : 30 м.
Битрейт                                  : 128 Кбит/сек
Каналы                                   : 2 канала
Частота                                  : 48,0 КГц
Битовая глубина                          : 16 бит
Размер потока                            : 27,5 Мбайт (4%)


pic/skrin.gif

http://picpicture.com/thumb.php?id=D41D_516EB249 http://picpicture.com/thumb.php?id=EAF6_516EB249 http://picpicture.com/thumb.php?id=B479_516EB249 http://picpicture.com/thumb.php?id=CDEE_516EB249 http://picpicture.com/thumb.php?id=CD91_516EB249 http://picpicture.com/thumb.php?id=13BA_516EB339 http://picpicture.com/thumb.php?id=F4A2_516EB339 http://picpicture.com/thumb.php?id=B0AB_516EB390

    

Голосуй:
ПОТИСКАЙ ТИТЬКИ, А ПОТОМ СКАЧАЙ!
http://picpicture.com/image.php?id=9614_516E6AC5&gif


ТипOrgy, group sex
Жанры720 hd, amateur, gang bang, group sex, orgy, .danbros

Коментарии к порновидео CZECH MEGA SWINGERS 17 - PART 2 / Чешские свингеры 17 - часть 2 [CzechMegaSwingers.com] / 2013 / HD 720
Комментариев нет. Желаете добавить? Зарегистрируйтесь на порно торрент трекере.

Радио онлайн

Будь с нами!

Наша кнопка
Порновидео трекер Кинорун.ком -  Kinorun.com! - русский секс, оральный секс, видео русский инцест, подростки, гей, лесбо , трансвеститы, извращения, зрелые красотки, анал - БЕСПЛАТНО!
?HTML код кнопки:>

Счётчики