Главная Вход Регистрация ТОРРЕНТЫ Закладки PicPicture Форум FAQ Казино
Порно Лесбиянки Геи Подростки 18+ Русское порно Домашнее порно Анал Фистинг Порно азиатки BBW, FAT БДСМ Нетрадиционное Bukkake Трансы Минет Оргия Инцест Порно азиатки Порно зрелых +35 Мастурбация Сиськи Black (Ebony) Копро, говно, писающие Порно старых +50 Беременные Карлики Порно мультики Порно с переводом Порно паки Порно пародии Ретро порно Мультики Игры Фото Разное Документальное ххх ZOO С собаками С лошадьми
Голосуем!
Жмем раз в сутки, голосуем,
получаем 500 MB к розданному!

Голосуйте за наш трекер, этим вы поможете его развитию


Привет, гость

Логин:

Пароль:



Регистрация
Восстановление пароля
КОНТАКТЫ
ПРАВООБЛАДАТЕЛЯМ !!!


Реклама

Порно торрент трекер kinorun.com скачать порно бесплатно

Порно торрент трекер KINORUN - бесплатно фильмы для взрослых, русское порно, эротика, русские девочки, русский инцест, порно hd, любительское порно, порно мультики, секс

Уважаемые любители порновидео, вы попали на трекер где все порно фильмы абсолютно бесплатны, и постоянно обновляются. Мы стараемся заливать только качественное, эксклюзивное порно видео, которое можно довольно редко встретить на просторах интернета.
Так же на нашем сайте вы можете найти ctrc, русский инцест, гей, лесби, фистинг , подростки, трансы, домашнее и другие популярные направления секса.
Имеется скрытый раздел с уникальными фильмами только для опытных пользователей, вы легко получите этот статус, заливая раздачи на трекер. Тогда вы получите доступ ко всем раздачам, когда вам это делать в лом, вы можете приобрести VIP статус, который дается на 28 дней, за совершенно символическую сумму, при этом ваш рейтинг растет только в положительную сторону, скачка не учитывается.
Посетите наш порно форум, на котором подробно описаны жанры и биографии порно звезд, описаны многие проблемы, возникающие при закачке. Скачивай видео бесплатно.

Как снимается порно в России / 2011 / CAMRip - Documentary ххх

Documentary хххСкачать бесплатно Как снимается порно в России / 2011 / CAMRip, download kak_snimaetsja_porno.avi.torrent
Скачать порно видео Как снимается порно в России / 2011 / CAMRip
Для вашего IP: (54.158.167.137) лимит на сегодня - 1 торрент. Для скачивания БЕЗ ограничений авторизуйтесь
СтатусПроверен
Картинки Как снимается порно в России / 2011 / CAMRip  
Описание Документальный фильм про съемки порно. Снято  в России на нескольких квартирах. Полный диалог и полная очвучка диалогов.

Название: Как снимается порно в России
Год: 2011
Жанр: Amateur,Home,Oral Sex
Режисер: Ванька Озабоченный (Плешивый)


Страна: Россия
Продолжительность: 02:57:00

Технические данные
Качество: CAMRip
Формат: AVI
Видео кодек: XviD
Видео: 320х240,  514 Кбит/сек
Аудио кодек: MP3
Звук: 128 кб/с, 2 ch


MediaInfo:
Общее
Полное имя                               : kak_snimaetsja_porno.avi
Формат                                   : AVI
Формат/Информация                        : Audio Video Interleave
Размер файла                             : 830 Мбайт
Продолжительность                        : 2 ч. 57 м.
Общий поток                              : 655 Кбит/сек
Программа кодирования                    : Lavf52.94.0
Примечание                               : www.freemake.com

Видео
Идентификатор                            : 0
Формат                                   : xvid
Идентификатор кодека                     : xvid
Продолжительность                        : 2 ч. 57 м.
Битрейт                                  : 514 Кбит/сек
Ширина                                   : 320 пикселей
Высота                                   : 240 пикселей
Соотношение сторон                       : 4:3
Частота кадров                           : 25,000 кадров/сек
Бит/(Пиксели*Кадры)                      : 0.268
Размер потока                            : 652 Мбайт (79%)

Аудио
Идентификатор                            : 1
Формат                                   : MPEG Audio
Версия формата                           : Version 2
Профиль формата                          : Layer 3
Режим                                    : Joint stereo
Расширение режима                        : MS Stereo
Идентификатор кодека                     : 55
Идентификатор кодека/Подсказка           : MP3
Продолжительность                        : 2 ч. 57 м.
Вид битрейта                             : Постоянный
Битрейт                                  : 128 Кбит/сек
Каналы                                   : 2 канала
Частота                                  : 22,05 КГц
Метод сжатия                             : С потерями
Размер потока                            : 162 Мбайт (20%)
Выравнивание                             : Соединение по промежуткам
Продолжительность промежутка             : 26  мс. (0,65 видеокадр)
Библиотека кодирования                   : LAME3.98.4ЄЄЄЄЄЄЄЄЄЄ


pic/skrin.gif
  

http://picpicture.com/image.php?id=F66C_51102BAB&jpg
http://picpicture.com/image.php?id=6A5B_51102BAB&jpg
http://picpicture.com/image.php?id=606A_51102BAB&jpg
http://picpicture.com/image.php?id=0CD3_51102BAB&jpg
http://picpicture.com/image.php?id=D48D_51102BAB&jpg
http://picpicture.com/image.php?id=E1EB_51102C53&jpg
http://picpicture.com/image.php?id=478F_51102C53&jpg
http://picpicture.com/image.php?id=FFDB_51102C53&jpg

    

Голосуй:
ПИВО БУДЕШ!?
http://picpicture.com/images/o7301v6m3aw5thvgs6x1.jpg


ТипDocumentary ххх
Жанрыgroup sex, grany, orgy, oral, russian, amateur, .ГРОБСОН

Коментарии к порновидео Как снимается порно в России / 2011 / CAMRip
Страницы:  1 
:: Не в сети Скорпион :: Скорпион :: upload 75.67 TB :: download 2.48 GB :: 31,272.99 ::
:thankyou:
Комментарий добавлен: 2013-02-05 06:27:00 GMT

:: Не в сети sosvki :: Эксперт :: upload 120.63 GB :: download 60.23 GB :: 2.00 ::
:thankyou:  Посмотрим  :clap2:
Комментарий добавлен: 2013-02-05 15:29:11 GMT

:: Не в сети poold :: сид-шизофреник :: upload 6.67 TB :: download 73.94 GB :: 92.32 ::
:thankyou:
Комментарий добавлен: 2013-02-06 21:14:04 GMT

[Anonymous]
релизеру пожелания: выложи если есть вообще= как снимается лесби-порно?

Последний раз редактировалось в 2013-02-11 11:47:15

Комментарий добавлен: 2013-02-11 11:46:40 GMT

Всего 4 порновидео на 1 страницах по 10 на каждой странице.ctrc

Страницы:  1 
Радио онлайн

Будь с нами!

Наша кнопка
Порновидео трекер Кинорун.ком -  Kinorun.com! - русский секс, оральный секс, видео русский инцест, подростки, гей, лесбо , трансвеститы, извращения, зрелые красотки, анал - БЕСПЛАТНО!
?HTML код кнопки:>

Счётчики