Главная Вход Регистрация ТОРРЕНТЫ Закладки PicPicture Форум FAQ Казино
Порно Лесбиянки Геи Подростки 18+ Русское порно Домашнее порно Анал Фистинг Порно азиатки BBW, FAT БДСМ Нетрадиционное Bukkake Трансы Минет Оргия Инцест Порно азиатки Порно зрелых +35 Мастурбация Сиськи Black (Ebony) Копро, говно, писающие Порно старых +50 Беременные Карлики Порно мультики Порно с переводом Порно паки Порно пародии Ретро порно Мультики Игры Фото Разное Документальное ххх ZOO С собаками С лошадьми
Голосуем!
Жмем раз в сутки, голосуем,
получаем 500 MB к розданному!

Голосуйте за наш трекер, этим вы поможете его развитию


Привет, гость

Логин:

Пароль:



Регистрация
Восстановление пароля
КОНТАКТЫ
ПРАВООБЛАДАТЕЛЯМ !!!


Реклама

Порно торрент трекер kinorun.com скачать порно бесплатно

Порно торрент трекер KINORUN - бесплатно фильмы для взрослых, русское порно, эротика, русские девочки, русский инцест, порно hd, любительское порно, порно мультики, секс

Уважаемые любители порновидео, вы попали на трекер где все порно фильмы абсолютно бесплатны, и постоянно обновляются. Мы стараемся заливать только качественное, эксклюзивное порно видео, которое можно довольно редко встретить на просторах интернета.
Так же на нашем сайте вы можете найти ctrc, русский инцест, гей, лесби, фистинг , подростки, трансы, домашнее и другие популярные направления секса.
Имеется скрытый раздел с уникальными фильмами только для опытных пользователей, вы легко получите этот статус, заливая раздачи на трекер. Тогда вы получите доступ ко всем раздачам, когда вам это делать в лом, вы можете приобрести VIP статус, который дается на 28 дней, за совершенно символическую сумму, при этом ваш рейтинг растет только в положительную сторону, скачка не учитывается.
Посетите наш порно форум, на котором подробно описаны жанры и биографии порно звезд, описаны многие проблемы, возникающие при закачке. Скачивай видео бесплатно.

Мама и папа учат дочь сексу / Mother and the father teach the daughter to sex / 2011 / DVDRip - Incest

IncestСкачать бесплатно Мама и папа учат дочь сексу / Mother and the father teach the daughter to sex / 2011 / DVDRip, download grace.and.kelsey_(new).avi.torrent
Скачать порно видео Мама и папа учат дочь сексу / Mother and the father teach the daughter to sex / 2011 / DVDRip
Для вашего IP: (54.146.179.146) лимит на сегодня - 1 торрент. Для скачивания БЕЗ ограничений авторизуйтесь
СтатусПроверен
Картинки Мама и папа учат дочь сексу / Mother and the father teach the daughter to sex / 2011 / DVDRip  
Описание Мама с папой решили научить свою молодую и не опытную дочь как надо заниматься сексом
и пригласили ее поучаствовать в своей ебле.


Название: Мама и папа учат дочь сексу
Оригинал: Mother and the father teach the daughter to sex
Год: 2011
Жанр: Blowjob, Teen, Facial, incest
В ролях: Семейка


Страна: Англия
Продолжительность: 00:38:00
Перевод: Без перевода

Технические данные
Качество: DVDRip
Формат: AVI
Видео кодек: DivX
Видео: 640х480, 2000 Кбит/сек
Аудио кодек: MP3
Звук: 128 кб/с, 2 ch


MediaInfo:
Общее
Полное имя                       : grace.and.kelsey_(new).avi
Формат                           : AVI
Формат/Информация                : Audio Video Interleave
Размер файла                     : 595 Мбайт
Продолжительность                : 38 м.
Общий поток                      : 2141 Кбит/сек
Программа кодирования            : Lavf52.56.1

Видео
Идентификатор                    : 0
Формат                           : MPEG-4 Visual
Профиль формата                  : Simple@L1
Параметр BVOP формата            : Нет
Параметр QPel формата            : Нет
Параметр GMC формата             : Без точки перехода
Параметр матрицы формата         : Default (H.263)
Идентификатор кодека             : DIVX
Идентификатор кодека/Информация  : Project Mayo
Идентификатор кодека/Подсказка   : DivX 4
Продолжительность                : 38 м.
Битрейт                          : 2000 Кбит/сек
Ширина                           : 640 пикселей
Высота                           : 480 пикселей
Соотношение сторон               : 4:3
Частота кадров                   : 29,000 кадров/сек
Цветовое пространство            : YUV
Субдискретизация насыщенности    : 4:2:0
Битовая глубина                  : 8 бит
Тип развёртки                    : Прогрессивная
Метод сжатия                     : С потерями
Бит/(Пиксели*Кадры)              : 0.225
Размер потока                    : 556 Мбайт (93%)
Библиотека кодирования           : Lavc52.59.0

Аудио
Идентификатор                    : 1
Формат                           : MPEG Audio
Версия формата                   : Version 1
Профиль формата                  : Layer 3
Режим                            : Joint stereo
Расширение режима                : MS Stereo
Идентификатор кодека             : 55
Идентификатор кодека/Подсказка   : MP3
Продолжительность                : 38 м.
Вид битрейта                     : Постоянный
Битрейт                          : 128 Кбит/сек
Каналы                           : 2 канала
Частота                          : 44,1 КГц
Метод сжатия                     : С потерями
Размер потока                    : 35,5 Мбайт (6%)
Выравнивание                     : Соединение по промежуткам
Продолжительность промежутка     : 26  мс. (0,76 видеокадр)
Библиотека кодирования           : LAME3.98.3



pic/skrin.gif
http://picpicture.com/image.php?id=D508_50854BEF&jpg http://picpicture.com/image.php?id=08F0_50854BEF&jpg http://picpicture.com/image.php?id=F7B2_50854BEF&jpg http://picpicture.com/image.php?id=07A4_50854BEF&jpg http://picpicture.com/image.php?id=0C20_50854BEF&jpg http://picpicture.com/image.php?id=099C_50854BEF&jpg http://picpicture.com/image.php?id=2572_50854CD3&jpg http://picpicture.com/image.php?id=3821_50854CD3&jpg http://picpicture.com/image.php?id=5E38_50854CD3&jpg http://picpicture.com/image.php?id=0647_50854CD3&jpg  http://picpicture.com/image.php?id=65FC_50854CD3&jpg http://picpicture.com/image.php?id=B919_50854CD3&jpg    

Голосуй:
ПИВО БУДЕШЬ!?
http://picpicture.com/images/o7301v6m3aw5thvgs6x1.jpg


ТипIncest
Жанрыamateur, blondes, girl/girl (lesbian), incest, oral, .СКОРПИОН

Коментарии к порновидео Мама и папа учат дочь сексу / Mother and the father teach the daughter to sex / 2011 / DVDRip
Страницы:  1 
:: Не в сети tresh :: Эксперт :: upload 1.52 TB :: download 707.51 GB :: 2.20 ::
:thankyou:  :thankyou:  :thankyou:
Комментарий добавлен: 2012-10-22 19:07:50 GMT

Всего 1 порновидео на 1 страницах по 10 на каждой странице.ctrc

Страницы:  1 
Радио онлайн

Будь с нами!

Наша кнопка
Порновидео трекер Кинорун.ком -  Kinorun.com! - русский секс, оральный секс, видео русский инцест, подростки, гей, лесбо , трансвеститы, извращения, зрелые красотки, анал - БЕСПЛАТНО!
?HTML код кнопки:>

Счётчики