Главная Вход Регистрация ТОРРЕНТЫ Закладки PicPicture Форум FAQ Казино
Порно Лесбиянки Геи Подростки 18+ Русское порно Домашнее порно Анал Фистинг Порно азиатки BBW, FAT БДСМ Нетрадиционное Bukkake Трансы Минет Оргия Инцест Порно азиатки Порно зрелых +35 Мастурбация Сиськи Black (Ebony) Копро, говно, писающие Порно старых +50 Беременные Карлики Порно мультики Порно с переводом Порно паки Порно пародии Ретро порно Мультики Игры Фото Разное Документальное ххх ZOO С собаками С лошадьми
Голосуем!
Жмем раз в сутки, голосуем,
получаем 500 MB к розданному!

Голосуйте за наш трекер, этим вы поможете его развитию


Привет, гость

Логин:

Пароль:



Регистрация
Восстановление пароля
КОНТАКТЫ
ПРАВООБЛАДАТЕЛЯМ !!!


Реклама

Порно торрент трекер kinorun.com скачать порно бесплатно

Порно торрент трекер KINORUN - бесплатно фильмы для взрослых, русское порно, эротика, русские девочки, русский инцест, порно hd, любительское порно, порно мультики, секс

Уважаемые любители порновидео, вы попали на трекер где все порно фильмы абсолютно бесплатны, и постоянно обновляются. Мы стараемся заливать только качественное, эксклюзивное порно видео, которое можно довольно редко встретить на просторах интернета.
Так же на нашем сайте вы можете найти ctrc, русский инцест, гей, лесби, фистинг , подростки, трансы, домашнее и другие популярные направления секса.
Имеется скрытый раздел с уникальными фильмами только для опытных пользователей, вы легко получите этот статус, заливая раздачи на трекер. Тогда вы получите доступ ко всем раздачам, когда вам это делать в лом, вы можете приобрести VIP статус, который дается на 28 дней, за совершенно символическую сумму, при этом ваш рейтинг растет только в положительную сторону, скачка не учитывается.
Посетите наш порно форум, на котором подробно описаны жанры и биографии порно звезд, описаны многие проблемы, возникающие при закачке. Скачивай видео бесплатно.

Tera Patrick (108 роликов) MEGAPACK / Самая большая коллекция сцен с Терой на сегодняшний день. (ЭКСКЛЮЗИВНЫЕ ВИДЕО) DVD-Rip - Porno pack

Porno packСкачать бесплатно Tera Patrick (108 роликов) MEGAPACK / Самая большая коллекция сцен с Терой на сегодняшний день. (ЭКСКЛЮЗИВНЫЕ ВИДЕО) DVD-Rip, download Tera Patrick MegaPack-roliks-kinorun.torrent
Скачать порно видео Tera Patrick (108 роликов) MEGAPACK / Самая большая коллекция сцен с Терой на сегодняшний день. (ЭКСКЛЮЗИВНЫЕ ВИДЕО) DVD-Rip
Для вашего IP: (54.197.65.227) лимит на сегодня - 1 торрент. Для скачивания БЕЗ ограничений авторизуйтесь
СтатусПроверен
КартинкиTera Patrick (108 роликов) MEGAPACK / Самая большая коллекция сцен с Терой на сегодняшний день. (ЭКСКЛЮЗИВНЫЕ ВИДЕО) DVD-Rip  
Описаниеhttp://picpicture.com/images/2016/05/06/e47736dd607cd4eb8da6463dcedd3645.md.jpghttp://picpicture.com/images/2016/05/06/2d876a5854925909651a9eee68268eee.md.jpg
Информация о фильме:
Название: Tera Patrick (108 роликов) MEGAPACK
Оригинальное название: Самая большая коллекция сцен с Терой на сегодняшний день. (ЭКСКЛЮЗИВНЫЕ ВИДЕО)
Жанр: All Sex, Anal, Asian, Big Tits, Cumshot, Hardcore, Lesbian, Lingerie, POV, Softcore, Solo
В ролях: Tera Patrick
Страна: USA
Продолжительность: 27:08:28
Золотой торрент!!!
http://picpicture.com/images/2016/05/06/e757dcdc5a35d1404931c218d4afa138.md.jpghttp://picpicture.com/images/2016/05/06/31ecbeb78155ad698c319a01403a331a.md.jpg
Технические данные на все ролики в файле в самой раздаче
Пример для 1-го ролика:
Complete name - 18 and Nasty 11.avi
Format : AVI
Format/Info : Audio Video Interleave
File size : 167 MiB
Duration : 27mn 49s
Overall bit rate : 840 Kbps
Writing library : VirtualDub build 13130/release

Video
Format : MPEG-4 Visual
Format settings, BVOP : Yes
Format settings, QPel : No
Format settings, GMC : No warppoints
Format settings, Matrix : Default
Codec ID : DIVX
Codec ID/Info : Project Mayo
Codec ID/Hint : DivX 4
Duration : 27mn 49s
Bit rate : 788 Kbps
Width : 352 pixels
Height : 288 pixels
Display aspect ratio : 1.222
Frame rate : 29.970 fps
Resolution : 24 bits
Scan type : Progressive
Bits/(Pixel*Frame) : 0.259
Stream size : 157 MiB (94%)

Audio
Format : MPEG Audio
Format version : Version 2
Format profile : Layer 3
Codec ID : 55
Codec ID/Hint : MP3
Duration : 27mn 48s
Bit rate mode : Constant
Bit rate : 40.0 Kbps
Channel(s) : 2 channels
Sampling rate : 24.0 KHz
Resolution : 16 bits
Video delay : 13ms
Stream size : 7.96 MiB (5%)
Alignment : Split accross interleaves
Interleave, duration : 33 ms (1.00 video frame)
Interleave, preload duration : 500 ms

http://picpicture.com/images/2016/05/06/005186b4bf0d29202181133c16e05bf0.md.jpghttp://picpicture.com/images/2016/05/06/be54769a20cd50424c258c9ea92bfaa8.md.jpg
Скриншоты ко всем роликам находяца в самой раздаче - здесь несколько примеров для оценки:
Скрытый текст
http://picpicture.com/images/2016/05/06/VirtualSexWithTeraPatrickblowjob.avi.th.jpghttp://picpicture.com/images/2016/05/06/UpCummers80.divx.th.jpghttp://picpicture.com/images/2016/05/06/WildHoney2.avi.th.jpghttp://picpicture.com/images/2016/05/06/VirtualSexWithTeraPatricksex.avi.th.jpg
http://picpicture.com/images/2016/05/06/AsianStreetHookers7.mpg.th.jpghttp://picpicture.com/images/2016/05/06/AsianSororityFever.avi.th.jpghttp://picpicture.com/images/2016/05/06/AngelDust.avi.th.jpghttp://picpicture.com/images/2016/05/06/18andNasty11.avi.th.jpg
ТипPorno pack
Жанрыall sex, anal, big tits, cumschot, girl/girl (lesbian), pov, hardcore, oral, .alexss

Коментарии к порновидео Tera Patrick (108 роликов) MEGAPACK / Самая большая коллекция сцен с Терой на сегодняшний день. (ЭКСКЛЮЗИВНЫЕ ВИДЕО) DVD-Rip
Страницы: «  1 2 
[Anonymous]
станьте на раздачу пожалуйста
Комментарий добавлен: 2011-08-01 20:20:26 GMT

:: Не в сети ALEX SS ::Donor Сталкер по жизни :: upload 555.70 TB :: download 390.23 MB :: 1,493,210.77 ::
Я на раздаче - качаем на здоровье
Комментарий добавлен: 2013-11-25 23:19:46 GMT

[Anonymous]
станьте на раздачу!!!
Комментарий добавлен: 2015-02-12 21:53:12 GMT

Всего 13 порновидео на 2 страницах по 10 на каждой странице.ctrc

Страницы: «  1 2 
Радио онлайн

Будь с нами!

Наша кнопка
Порновидео трекер Кинорун.ком -  Kinorun.com! - русский секс, оральный секс, видео русский инцест, подростки, гей, лесбо , трансвеститы, извращения, зрелые красотки, анал - БЕСПЛАТНО!
?HTML код кнопки:>

Счётчики